  0
SECTION
  2
HEADER
  9
$ACADVER
  1
AC1014
  9
$ACADMAINTVER
 70
     0
  9
$DWGCODEPAGE
  3
ANSI_1250
  9
$INSBASE
 10
0.0
 20
0.0
 30
0.0
  9
$EXTMIN
 10
-272.446259
 20
-513.494451
 30
0.0
  9
$EXTMAX
 10
510.958991
 20
304.062549
 30
0.0
  9
$LIMMIN
 10
0.0
 20
0.0
  9
$LIMMAX
 10
420.0
 20
297.0
  9
$ORTHOMODE
 70
     1
  9
$REGENMODE
 70
     1
  9
$FILLMODE
 70
     1
  9
$QTEXTMODE
 70
     0
  9
$MIRRTEXT
 70
     1
  9
$DRAGMODE
 70
     2
  9
$LTSCALE
 40
1.0
  9
$OSMODE
 70
     1
  9
$ATTMODE
 70
     1
  9
$TEXTSIZE
 40
40.0
  9
$TRACEWID
 40
1.0
  9
$TEXTSTYLE
  7
ED40
  9
$CLAYER
  8
V0-VYPLNE
  9
$CELTYPE
  6
CONTINUOUS
  9
$CECOLOR
 62
    41
  9
$CELTSCALE
 40
1.0
  9
$DELOBJ
 70
     1
  9
$DISPSILH
 70
     0
  9
$DIMSCALE
 40
1.0
  9
$DIMASZ
 40
20.0
  9
$DIMEXO
 40
1.0
  9
$DIMDLI
 40
3.75
  9
$DIMRND
 40
0.0
  9
$DIMDLE
 40
0.0
  9
$DIMEXE
 40
1.25
  9
$DIMTP
 40
0.0
  9
$DIMTM
 40
0.0
  9
$DIMTXT
 40
20.0
  9
$DIMCEN
 40
3.0
  9
$DIMTSZ
 40
0.0
  9
$DIMTOL
 70
     0
  9
$DIMLIM
 70
     0
  9
$DIMTIH
 70
     0
  9
$DIMTOH
 70
     0
  9
$DIMSE1
 70
     0
  9
$DIMSE2
 70
     0
  9
$DIMTAD
 70
     1
  9
$DIMZIN
 70
     8
  9
$DIMBLK
  1

  9
$DIMASO
 70
     1
  9
$DIMSHO
 70
     1
  9
$DIMPOST
  1

  9
$DIMAPOST
  1

  9
$DIMALT
 70
     0
  9
$DIMALTD
 70
     4
  9
$DIMALTF
 40
0.0394
  9
$DIMLFAC
 40
1.0
  9
$DIMTOFL
 70
     1
  9
$DIMTVP
 40
0.0
  9
$DIMTIX
 70
     0
  9
$DIMSOXD
 70
     0
  9
$DIMSAH
 70
     1
  9
$DIMBLK1
  1
_OPEN
  9
$DIMBLK2
  1
_OPEN
  9
$DIMSTYLE
  2
ED20
  9
$DIMCLRD
 70
    41
  9
$DIMCLRE
 70
    41
  9
$DIMCLRT
 70
    41
  9
$DIMTFAC
 40
1.0
  9
$DIMGAP
 40
2.0
  9
$DIMJUST
 70
     0
  9
$DIMSD1
 70
     0
  9
$DIMSD2
 70
     0
  9
$DIMTOLJ
 70
     1
  9
$DIMTZIN
 70
     8
  9
$DIMALTZ
 70
     0
  9
$DIMALTTZ
 70
     0
  9
$DIMFIT
 70
     3
  9
$DIMUPT
 70
     0
  9
$DIMUNIT
 70
     2
  9
$DIMDEC
 70
     0
  9
$DIMTDEC
 70
     1
  9
$DIMALTU
 70
     8
  9
$DIMALTTD
 70
     4
  9
$DIMTXSTY
  7
ED20
  9
$DIMAUNIT
 70
     0
  9
$LUNITS
 70
     2
  9
$LUPREC
 70
     4
  9
$SKETCHINC
 40
1.0
  9
$FILLETRAD
 40
3.0
  9
$AUNITS
 70
     0
  9
$AUPREC
 70
     0
  9
$MENU
  1
.
  9
$ELEVATION
 40
0.0
  9
$PELEVATION
 40
0.0
  9
$THICKNESS
 40
0.0
  9
$LIMCHECK
 70
     0
  9
$BLIPMODE
 70
     0
  9
$CHAMFERA
 40
0.5
  9
$CHAMFERB
 40
0.5
  9
$CHAMFERC
 40
20.0
  9
$CHAMFERD
 40
0.0
  9
$SKPOLY
 70
     1
  9
$TDCREATE
 40
2451196.643769328
  9
$TDUPDATE
 40
2452915.871598263
  9
$TDINDWG
 40
0.8178474537
  9
$TDUSRTIMER
 40
0.8178474537
  9
$USRTIMER
 70
     1
  9
$ANGBASE
 50
0.0
  9
$ANGDIR
 70
     0
  9
$PDMODE
 70
    35
  9
$PDSIZE
 40
20.0
  9
$PLINEWID
 40
0.0
  9
$COORDS
 70
     1
  9
$SPLFRAME
 70
     0
  9
$SPLINETYPE
 70
     6
  9
$SPLINESEGS
 70
     8
  9
$ATTDIA
 70
     0
  9
$ATTREQ
 70
     1
  9
$HANDLING
 70
     1
  9
$HANDSEED
  5
1ED6
  9
$SURFTAB1
 70
     6
  9
$SURFTAB2
 70
     6
  9
$SURFTYPE
 70
     6
  9
$SURFU
 70
     6
  9
$SURFV
 70
     6
  9
$UCSNAME
  2

  9
$UCSORG
 10
366.8741676550712
 20
89.37358462115861
 30
0.0
  9
$UCSXDIR
 10
1.0
 20
0.0
 30
0.0
  9
$UCSYDIR
 10
0.0
 20
1.0
 30
0.0
  9
$PUCSNAME
  2

  9
$PUCSORG
 10
0.0
 20
0.0
 30
0.0
  9
$PUCSXDIR
 10
1.0
 20
0.0
 30
0.0
  9
$PUCSYDIR
 10
0.0
 20
1.0
 30
0.0
  9
$USERI1
 70
     0
  9
$USERI2
 70
     0
  9
$USERI3
 70
     0
  9
$USERI4
 70
     0
  9
$USERI5
 70
     0
  9
$USERR1
 40
0.0
  9
$USERR2
 40
0.0
  9
$USERR3
 40
0.0
  9
$USERR4
 40
0.0
  9
$USERR5
 40
0.0
  9
$WORLDVIEW
 70
     1
  9
$SHADEDGE
 70
     3
  9
$SHADEDIF
 70
    70
  9
$TILEMODE
 70
     1
  9
$MAXACTVP
 70
    48
  9
$PINSBASE
 10
0.0
 20
0.0
 30
0.0
  9
$PLIMCHECK
 70
     0
  9
$PEXTMIN
 10
1.000000E+20
 20
1.000000E+20
 30
1.000000E+20
  9
$PEXTMAX
 10
-1.000000E+20
 20
-1.000000E+20
 30
-1.000000E+20
  9
$PLIMMIN
 10
0.0
 20
0.0
  9
$PLIMMAX
 10
420.0
 20
297.0
  9
$UNITMODE
 70
     0
  9
$VISRETAIN
 70
     1
  9
$PLINEGEN
 70
     0
  9
$PSLTSCALE
 70
     0
  9
$TREEDEPTH
 70
  3020
  9
$PICKSTYLE
 70
     0
  9
$CMLSTYLE
  2
STANDARD
  9
$CMLJUST
 70
     1
  9
$CMLSCALE
 40
3.0
  9
$PROXYGRAPHICS
 70
     1
  9
$MEASUREMENT
 70
     1
  0
ENDSEC
  0
SECTION
  2
CLASSES
  0
CLASS
  1
DICTIONARYVAR
  2
AcDbDictionaryVar
  3
"AutoCAD"
 90
        0
280
     0
281
     0
  0
CLASS
  1
LWPOLYLINE
  2
AcDbPolyline
  3
"AutoCAD"
 90
        0
280
     0
281
     1
  0
CLASS
  1
HATCH
  2
AcDbHatch
  3
"ACAD_SEDONA"
 90
        0
280
     0
281
     1
  0
ENDSEC
  0
SECTION
  2
TABLES
  0
TABLE
  2
VPORT
  5
8
100
AcDbSymbolTable
 70
     2
  0
VPORT
  5
1ED5
100
AcDbSymbolTableRecord
100
AcDbViewportTableRecord
  2
*ACTIVE
 70
     0
 10
0.0
 20
0.0
 11
1.0
 21
1.0
 12
123.15487
 22
-99.506409
 13
0.0
 23
0.0
 14
10.0
 24
10.0
 15
10.0
 25
10.0
 16
0.0
 26
0.0
 36
1.0
 17
0.0
 27
0.0
 37
0.0
 40
916.243723
 41
1.730469
 42
50.0
 43
0.0
 44
0.0
 50
0.0
 51
0.0
 71
     0
 72
   100
 73
     1
 74
     1
 75
     0
 76
     0
 77
     0
 78
     0
  0
ENDTAB
  0
TABLE
  2
LTYPE
  5
5
100
AcDbSymbolTable
 70
     4
  0
LTYPE
  5
14
100
AcDbSymbolTableRecord
100
AcDbLinetypeTableRecord
  2
BYBLOCK
 70
     0
  3

 72
    65
 73
     0
 40
0.0
  0
LTYPE
  5
15
100
AcDbSymbolTableRecord
100
AcDbLinetypeTableRecord
  2
BYLAYER
 70
     0
  3

 72
    65
 73
     0
 40
0.0
  0
LTYPE
  5
16
100
AcDbSymbolTableRecord
100
AcDbLinetypeTableRecord
  2
CONTINUOUS
 70
     0
  3
Solid line
 72
    65
 73
     0
 40
0.0
  0
LTYPE
  5
7F
100
AcDbSymbolTableRecord
100
AcDbLinetypeTableRecord
  2
DASHDOT
 70
     0
  3
Dash dot __ . __ . __ . __ . __ . __ . __ . __
 72
    65
 73
     4
 40
25.4
 49
12.7
 74
     0
 49
-6.35
 74
     0
 49
0.0
 74
     0
 49
-6.35
 74
     0
  0
LTYPE
  5
1B9E
100
AcDbSymbolTableRecord
100
AcDbLinetypeTableRecord
  2
ACAD_ISO02W100
 70
     0
  3
ISO dash __ __ __ __ __ __ __ __ __ __ __ __ __
 72
    65
 73
     2
 40
15.0
 49
12.0
 74
     0
 49
-3.0
 74
     0
  0
LTYPE
  5
1B9F
100
AcDbSymbolTableRecord
100
AcDbLinetypeTableRecord
  2
DASHED
 70
     0
  3
Dashed __ __ __ __ __ __ __ __ __ __ __ __ __ _
 72
    65
 73
     2
 40
19.05
 49
12.7
 74
     0
 49
-6.35
 74
     0
  0
ENDTAB
  0
TABLE
  2
LAYER
  5
2
100
AcDbSymbolTable
 70
     5
  0
LAYER
  5
F
100
AcDbSymbolTableRecord
100
AcDbLayerTableRecord
  2
0
 70
     0
 62
     7
  6
CONTINUOUS
  0
LAYER
  5
9E
100
AcDbSymbolTableRecord
100
AcDbLayerTableRecord
  2
DEFPOINTS
 70
     0
 62
     7
  6
CONTINUOUS
  0
LAYER
  5
377
100
AcDbSymbolTableRecord
100
AcDbLayerTableRecord
  2
V0-OBRYS
 70
     0
 62
    90
  6
CONTINUOUS
  0
LAYER
  5
378
100
AcDbSymbolTableRecord
100
AcDbLayerTableRecord
  2
V0-VYPLNE
 70
     0
 62
    63
  6
DASHDOT
  0
LAYER
  5
1540
100
AcDbSymbolTableRecord
100
AcDbLayerTableRecord
  2
VO-OBRYS
 70
     0
 62
    90
  6
CONTINUOUS
  0
ENDTAB
  0
TABLE
  2
STYLE
  5
3
100
AcDbSymbolTable
 70
     6
  0
STYLE
  5
10
100
AcDbSymbolTableRecord
100
AcDbTextStyleTableRecord
  2
STANDARD
 70
     0
 40
0.0
 41
1.0
 50
0.0
 71
     0
 42
2.5
  3
ISOCP
  4

  0
STYLE
  5
331
100
AcDbSymbolTableRecord
100
AcDbTextStyleTableRecord
  2
ED20
 70
     0
 40
20.0
 41
1.0
 50
0.0
 71
     0
 42
2.5
  3
ISOCP.shx
  4

  0
STYLE
  5
648
100
AcDbSymbolTableRecord
100
AcDbTextStyleTableRecord
  2
ED10
 70
     0
 40
10.0
 41
1.0
 50
0.0
 71
     0
 42
10.0
  3
ISOCP.shx
  4

  0
STYLE
  5
F38
100
AcDbSymbolTableRecord
100
AcDbTextStyleTableRecord
  2
ED30
 70
     0
 40
30.0
 41
1.0
 50
0.0
 71
     0
 42
2.5
  3
ISOCP.shx
  4

  0
STYLE
  5
F39
100
AcDbSymbolTableRecord
100
AcDbTextStyleTableRecord
  2
ED40
 70
     0
 40
40.0
 41
1.0
 50
0.0
 71
     0
 42
40.0
  3
ISOCP.shx
  4

  0
STYLE
  5
1B9D
100
AcDbSymbolTableRecord
100
AcDbTextStyleTableRecord
  2

 70
     1
 40
0.0
 41
1.0
 50
0.0
 71
     0
 42
40.0
  3
ltypeshp.shx
  4

  0
ENDTAB
  0
TABLE
  2
VIEW
  5
6
100
AcDbSymbolTable
 70
     0
  0
ENDTAB
  0
TABLE
  2
UCS
  5
7
100
AcDbSymbolTable
 70
     0
  0
ENDTAB
  0
TABLE
  2
APPID
  5
9
100
AcDbSymbolTable
 70
     1
  0
APPID
  5
11
100
AcDbSymbolTableRecord
100
AcDbRegAppTableRecord
  2
ACAD
 70
     0
  0
ENDTAB
  0
TABLE
  2
DIMSTYLE
  5
A
100
AcDbSymbolTable
 70
     2
  0
DIMSTYLE
105
1D
100
AcDbSymbolTableRecord
100
AcDbDimStyleTableRecord
  2
STANDARD
 70
     0
  3

  4

  5

  6
_OPEN
  7
_OPEN
 40
0.0
 41
15.0
 42
0.625
 43
3.75
 44
1.25
 45
0.0
 46
0.0
 47
0.0
 48
0.0
140
15.0
141
2.5
142
0.0
143
0.0394
144
1.0
145
0.0
146
1.0
147
3.0
 71
     0
 72
     0
 73
     0
 74
     0
 75
     0
 76
     0
 77
     1
 78
     8
170
     0
171
     4
172
     1
173
     1
174
     0
175
     0
176
     0
177
     0
178
     0
270
     2
271
     0
272
     1
273
     8
274
     4
340
331
275
     0
280
     0
281
     0
282
     0
283
     1
284
     8
285
     0
286
     0
287
     3
288
     0
  0
DIMSTYLE
105
FE9
102
{ACAD_REACTORS
330
1879
330
1886
330
1893
330
1849
330
1856
330
1CA4
102
}
100
AcDbSymbolTableRecord
100
AcDbDimStyleTableRecord
  2
ED20
 70
     0
  3

  4

  5

  6
_OPEN
  7
_OPEN
 40
1.0
 41
20.0
 42
1.0
 43
3.75
 44
1.25
 45
0.0
 46
0.0
 47
0.0
 48
0.0
140
20.0
141
3.0
142
0.0
143
0.0394
144
1.0
145
0.0
146
1.0
147
2.0
 71
     0
 72
     0
 73
     0
 74
     0
 75
     0
 76
     0
 77
     1
 78
     8
170
     0
171
     4
172
     1
173
     1
174
     0
175
     0
176
    41
177
    41
178
    41
270
     2
271
     0
272
     1
273
     8
274
     4
340
331
275
     0
280
     0
281
     0
282
     0
283
     1
284
     8
285
     0
286
     0
287
     3
288
     0
  0
ENDTAB
  0
TABLE
  2
BLOCK_RECORD
  5
1
100
AcDbSymbolTable
 70
     7
  0
BLOCK_RECORD
  5
1A
100
AcDbSymbolTableRecord
100
AcDbBlockTableRecord
  2
*MODEL_SPACE
  0
BLOCK_RECORD
  5
17
100
AcDbSymbolTableRecord
100
AcDbBlockTableRecord
  2
*PAPER_SPACE
  0
BLOCK_RECORD
  5
90
100
AcDbSymbolTableRecord
100
AcDbBlockTableRecord
  2
_OPEN
  0
BLOCK_RECORD
  5
186D
100
AcDbSymbolTableRecord
100
AcDbBlockTableRecord
  2
*D1
  0
BLOCK_RECORD
  5
187A
100
AcDbSymbolTableRecord
100
AcDbBlockTableRecord
  2
*D2
  0
BLOCK_RECORD
  5
1887
100
AcDbSymbolTableRecord
100
AcDbBlockTableRecord
  2
*D3
  0
BLOCK_RECORD
  5
1A7A
100
AcDbSymbolTableRecord
100
AcDbBlockTableRecord
  2
*D4
  0
BLOCK_RECORD
  5
1A86
100
AcDbSymbolTableRecord
100
AcDbBlockTableRecord
  2
*D5
  0
BLOCK_RECORD
  5
1C98
100
AcDbSymbolTableRecord
100
AcDbBlockTableRecord
  2
*D6
  0
ENDTAB
  0
ENDSEC
  0
SECTION
  2
BLOCKS
  0
BLOCK
  5
1B
100
AcDbEntity
  8
0
100
AcDbBlockBegin
  2
*MODEL_SPACE
 70
     0
 10
0.0
 20
0.0
 30
0.0
  3
*MODEL_SPACE
  1

  0
ENDBLK
  5
1C
100
AcDbEntity
  8
0
100
AcDbBlockEnd
  0
BLOCK
  5
18
100
AcDbEntity
 67
     1
  8
0
100
AcDbBlockBegin
  2
*PAPER_SPACE
 70
     0
 10
0.0
 20
0.0
 30
0.0
  3
*PAPER_SPACE
  1

  0
ENDBLK
  5
19
100
AcDbEntity
 67
     1
  8
0
100
AcDbBlockEnd
  0
BLOCK
  5
91
100
AcDbEntity
  8
0
100
AcDbBlockBegin
  2
_OPEN
 70
     0
 10
0.0
 20
0.0
 30
0.0
  3
_OPEN
  1

  0
LINE
  5
92
100
AcDbEntity
  8
0
  6
BYBLOCK
 62
     0
100
AcDbLine
 10
-1.0
 20
0.166667
 30
0.0
 11
0.0
 21
0.0
 31
0.0
  0
LINE
  5
93
100
AcDbEntity
  8
0
  6
BYBLOCK
 62
     0
100
AcDbLine
 10
0.0
 20
0.0
 30
0.0
 11
-1.0
 21
-0.166667
 31
0.0
  0
LINE
  5
94
100
AcDbEntity
  8
0
  6
BYBLOCK
 62
     0
100
AcDbLine
 10
0.0
 20
0.0
 30
0.0
 11
-1.0
 21
0.0
 31
0.0
  0
ENDBLK
  5
95
100
AcDbEntity
  8
0
100
AcDbBlockEnd
  0
BLOCK
  5
1DA9
100
AcDbEntity
  8
0
100
AcDbBlockBegin
  2
*D1
 70
     1
 10
0.0
 20
0.0
 30
0.0
  3
*D1
  1

  0
LINE
  5
1DAA
100
AcDbEntity
  8
0
  6
BYBLOCK
 62
    41
100
AcDbLine
 10
-119.664102
 20
204.373585
 30
0.0
 11
3.347875
 21
204.373585
 31
0.0
  0
LINE
  5
1DAB
100
AcDbEntity
  8
0
  6
BYBLOCK
 62
    41
100
AcDbLine
 10
-119.664102
 20
-25.626415
 30
0.0
 11
3.347875
 21
-25.626415
 31
0.0
  0
LINE
  5
1DAC
100
AcDbEntity
  8
0
  6
BYBLOCK
 62
    41
100
AcDbLine
 10
2.097875
 20
184.373585
 30
0.0
 11
2.097875
 21
-5.626415
 31
0.0
  0
INSERT
  5
1DAD
100
AcDbEntity
  8
0
  6
BYBLOCK
 62
    41
100
AcDbBlockReference
  2
_OPEN
 10
2.097875
 20
204.373585
 30
0.0
 41
20.0
 42
20.0
 43
20.0
 50
90.0
  0
INSERT
  5
1DAE
100
AcDbEntity
  8
0
  6
BYBLOCK
 62
    41
100
AcDbBlockReference
  2
_OPEN
 10
2.097875
 20
-25.626415
 30
0.0
 41
20.0
 42
20.0
 43
20.0
 50
270.0
  0
MTEXT
  5
1DAF
100
AcDbEntity
  8
0
  6
BYBLOCK
 62
    41
100
AcDbMText
 10
-9.904094
 20
89.373585
 30
0.0
 40
20.0
 41
0.0
 71
     5
 72
     1
  1
\A1;\U+2205230
  7
ED20
 11
0.0
 21
1.0
 31
0.0
  0
POINT
  5
1DB0
100
AcDbEntity
  8
DEFPOINTS
  6
BYBLOCK
 62
     0
100
AcDbPoint
 10
-120.664102
 20
204.373585
 30
0.0
  0
POINT
  5
1DB1
100
AcDbEntity
  8
DEFPOINTS
  6
BYBLOCK
 62
     0
100
AcDbPoint
 10
-120.664102
 20
-25.626415
 30
0.0
  0
POINT
  5
1DB2
100
AcDbEntity
  8
DEFPOINTS
  6
BYBLOCK
 62
     0
100
AcDbPoint
 10
2.097875
 20
-25.626415
 30
0.0
  0
ENDBLK
  5
1DB3
100
AcDbEntity
  8
0
100
AcDbBlockEnd
  0
BLOCK
  5
1D9E
100
AcDbEntity
  8
0
100
AcDbBlockBegin
  2
*D2
 70
     1
 10
0.0
 20
0.0
 30
0.0
  3
*D2
  1

  0
LINE
  5
1D9F
100
AcDbEntity
  8
0
  6
BYBLOCK
 62
    41
100
AcDbLine
 10
-100.664102
 20
191.873585
 30
0.0
 11
-34.986839
 21
191.873585
 31
0.0
  0
LINE
  5
1DA0
100
AcDbEntity
  8
0
  6
BYBLOCK
 62
    41
100
AcDbLine
 10
-100.664102
 20
-13.126415
 30
0.0
 11
-34.986839
 21
-13.126415
 31
0.0
  0
LINE
  5
1DA1
100
AcDbEntity
  8
0
  6
BYBLOCK
 62
    41
100
AcDbLine
 10
-36.236839
 20
171.873585
 30
0.0
 11
-36.236839
 21
6.873585
 31
0.0
  0
INSERT
  5
1DA2
100
AcDbEntity
  8
0
  6
BYBLOCK
 62
    41
100
AcDbBlockReference
  2
_OPEN
 10
-36.236839
 20
191.873585
 30
0.0
 41
20.0
 42
20.0
 43
20.0
 50
90.0
  0
INSERT
  5
1DA3
100
AcDbEntity
  8
0
  6
BYBLOCK
 62
    41
100
AcDbBlockReference
  2
_OPEN
 10
-36.236839
 20
-13.126415
 30
0.0
 41
20.0
 42
20.0
 43
20.0
 50
270.0
  0
MTEXT
  5
1DA4
100
AcDbEntity
  8
0
  6
BYBLOCK
 62
    41
100
AcDbMText
 10
-48.238807
 20
89.373585
 30
0.0
 40
20.0
 41
0.0
 71
     5
 72
     1
  1
\A1;\U+2205205
  7
ED20
 11
0.0
 21
1.0
 31
0.0
  0
POINT
  5
1DA5
100
AcDbEntity
  8
DEFPOINTS
  6
BYBLOCK
 62
     0
100
AcDbPoint
 10
-101.664102
 20
191.873585
 30
0.0
  0
POINT
  5
1DA6
100
AcDbEntity
  8
DEFPOINTS
  6
BYBLOCK
 62
     0
100
AcDbPoint
 10
-101.664102
 20
-13.126415
 30
0.0
  0
POINT
  5
1DA7
100
AcDbEntity
  8
DEFPOINTS
  6
BYBLOCK
 62
     0
100
AcDbPoint
 10
-36.236839
 20
-13.126415
 30
0.0
  0
ENDBLK
  5
1DA8
100
AcDbEntity
  8
0
100
AcDbBlockEnd
  0
BLOCK
  5
1DDA
100
AcDbEntity
  8
0
100
AcDbBlockBegin
  2
*D3
 70
     1
 10
0.0
 20
0.0
 30
0.0
  3
*D3
  1

  0
LINE
  5
1DDB
100
AcDbEntity
  8
0
  6
BYBLOCK
 62
    41
100
AcDbLine
 10
499.874168
 20
-34.626415
 30
0.0
 11
499.874168
 21
-112.448514
 31
0.0
  0
LINE
  5
1DDC
100
AcDbEntity
  8
0
  6
BYBLOCK
 62
    41
100
AcDbLine
 10
233.874168
 20
-34.626415
 30
0.0
 11
233.874168
 21
-112.448514
 31
0.0
  0
LINE
  5
1DDD
100
AcDbEntity
  8
0
  6
BYBLOCK
 62
    41
100
AcDbLine
 10
479.874168
 20
-111.198514
 30
0.0
 11
253.874168
 21
-111.198514
 31
0.0
  0
INSERT
  5
1DDE
100
AcDbEntity
  8
0
  6
BYBLOCK
 62
    41
100
AcDbBlockReference
  2
_OPEN
 10
499.874168
 20
-111.198514
 30
0.0
 41
20.0
 42
20.0
 43
20.0
  0
INSERT
  5
1DDF
100
AcDbEntity
  8
0
  6
BYBLOCK
 62
    41
100
AcDbBlockReference
  2
_OPEN
 10
233.874168
 20
-111.198514
 30
0.0
 41
20.0
 42
20.0
 43
20.0
 50
180.0
  0
MTEXT
  5
1DE0
100
AcDbEntity
  8
0
  6
BYBLOCK
 62
    41
100
AcDbMText
 10
366.715648
 20
-99.196546
 30
0.0
 40
20.0
 41
0.0
 71
     5
 72
     1
  1
\A1;266
  7
ED20
  0
POINT
  5
1DE1
100
AcDbEntity
  8
DEFPOINTS
  6
BYBLOCK
 62
     0
100
AcDbPoint
 10
499.874168
 20
-33.626415
 30
0.0
  0
POINT
  5
1DE2
100
AcDbEntity
  8
DEFPOINTS
  6
BYBLOCK
 62
     0
100
AcDbPoint
 10
233.874168
 20
-33.626415
 30
0.0
  0
POINT
  5
1DE3
100
AcDbEntity
  8
DEFPOINTS
  6
BYBLOCK
 62
     0
100
AcDbPoint
 10
233.874168
 20
-111.198514
 30
0.0
  0
ENDBLK
  5
1DE4
100
AcDbEntity
  8
0
100
AcDbBlockEnd
  0
BLOCK
  5
1D75
100
AcDbEntity
  8
0
100
AcDbBlockBegin
  2
*D4
 70
     1
 10
0.0
 20
0.0
 30
0.0
  3
*D4
  1

  0
LINE
  5
1D76
100
AcDbEntity
  8
0
  6
BYBLOCK
 62
    41
100
AcDbLine
 10
-101.664102
 20
-14.126415
 30
0.0
 11
-101.664102
 21
-101.301715
 31
0.0
  0
LINE
  5
1D77
100
AcDbEntity
  8
0
  6
BYBLOCK
 62
    41
100
AcDbLine
 10
-120.664102
 20
-68.126415
 30
0.0
 11
-120.664102
 21
-101.301715
 31
0.0
  0
LINE
  5
1D78
100
AcDbEntity
  8
0
  6
BYBLOCK
 62
    41
100
AcDbLine
 10
-140.664102
 20
-100.051715
 30
0.0
 11
-160.664102
 21
-100.051715
 31
0.0
  0
LINE
  5
1D79
100
AcDbEntity
  8
0
  6
BYBLOCK
 62
    41
100
AcDbLine
 10
-81.664102
 20
-100.051715
 30
0.0
 11
-38.232232
 21
-100.051715
 31
0.0
  0
LINE
  5
1D7A
100
AcDbEntity
  8
0
  6
BYBLOCK
 62
    41
100
AcDbLine
 10
-120.664102
 20
-100.051715
 30
0.0
 11
-101.664102
 21
-100.051715
 31
0.0
  0
INSERT
  5
1D7B
100
AcDbEntity
  8
0
  6
BYBLOCK
 62
    41
100
AcDbBlockReference
  2
_OPEN
 10
-120.664102
 20
-100.051715
 30
0.0
 41
20.0
 42
20.0
 43
20.0
  0
INSERT
  5
1D7C
100
AcDbEntity
  8
0
  6
BYBLOCK
 62
    41
100
AcDbBlockReference
  2
_OPEN
 10
-101.664102
 20
-100.051715
 30
0.0
 41
20.0
 42
20.0
 43
20.0
 50
180.0
  0
MTEXT
  5
1D7D
100
AcDbEntity
  8
0
  6
BYBLOCK
 62
    41
100
AcDbMText
 10
-49.948167
 20
-88.051715
 30
0.0
 40
20.0
 41
0.0
 71
     5
 72
     1
  1
\A1;19
  7
ED20
  0
POINT
  5
1D7E
100
AcDbEntity
  8
DEFPOINTS
  6
BYBLOCK
 62
     0
100
AcDbPoint
 10
-101.664102
 20
-13.126415
 30
0.0
  0
POINT
  5
1D7F
100
AcDbEntity
  8
DEFPOINTS
  6
BYBLOCK
 62
     0
100
AcDbPoint
 10
-120.664102
 20
-67.126415
 30
0.0
  0
POINT
  5
1D80
100
AcDbEntity
  8
DEFPOINTS
  6
BYBLOCK
 62
     0
100
AcDbPoint
 10
-120.664102
 20
-100.051715
 30
0.0
  0
ENDBLK
  5
1D81
100
AcDbEntity
  8
0
100
AcDbBlockEnd
  0
BLOCK
  5
1D8D
100
AcDbEntity
  8
0
100
AcDbBlockBegin
  2
*D5
 70
     1
 10
0.0
 20
0.0
 30
0.0
  3
*D5
  1

  0
LINE
  5
1D8E
100
AcDbEntity
  8
0
  6
BYBLOCK
 62
    41
100
AcDbLine
 10
-206.164102
 20
88.373585
 30
0.0
 11
-206.164102
 21
-101.301715
 31
0.0
  0
LINE
  5
1D8F
100
AcDbEntity
  8
0
  6
BYBLOCK
 62
    41
100
AcDbLine
 10
-120.664102
 20
-68.126415
 30
0.0
 11
-120.664102
 21
-101.301715
 31
0.0
  0
LINE
  5
1D90
100
AcDbEntity
  8
0
  6
BYBLOCK
 62
    41
100
AcDbLine
 10
-186.164102
 20
-100.051715
 30
0.0
 11
-140.664102
 21
-100.051715
 31
0.0
  0
INSERT
  5
1D91
100
AcDbEntity
  8
0
  6
BYBLOCK
 62
    41
100
AcDbBlockReference
  2
_OPEN
 10
-206.164102
 20
-100.051715
 30
0.0
 41
20.0
 42
20.0
 43
20.0
 50
180.0
  0
INSERT
  5
1D92
100
AcDbEntity
  8
0
  6
BYBLOCK
 62
    41
100
AcDbBlockReference
  2
_OPEN
 10
-120.664102
 20
-100.051715
 30
0.0
 41
20.0
 42
20.0
 43
20.0
  0
MTEXT
  5
1D93
100
AcDbEntity
  8
0
  6
BYBLOCK
 62
    41
100
AcDbMText
 10
-160.664102
 20
-88.051715
 30
0.0
 40
20.0
 41
0.0
 71
     5
 72
     1
  1
\A1;86
  7
ED20
  0
POINT
  5
1D94
100
AcDbEntity
  8
DEFPOINTS
  6
BYBLOCK
 62
     0
100
AcDbPoint
 10
-206.164102
 20
89.373585
 30
0.0
  0
POINT
  5
1D95
100
AcDbEntity
  8
DEFPOINTS
  6
BYBLOCK
 62
     0
100
AcDbPoint
 10
-120.664102
 20
-67.126415
 30
0.0
  0
POINT
  5
1D96
100
AcDbEntity
  8
DEFPOINTS
  6
BYBLOCK
 62
     0
100
AcDbPoint
 10
-120.664102
 20
-100.051715
 30
0.0
  0
ENDBLK
  5
1D97
100
AcDbEntity
  8
0
100
AcDbBlockEnd
  0
BLOCK
  5
1DE5
100
AcDbEntity
  8
0
100
AcDbBlockBegin
  2
*D6
 70
     1
 10
0.0
 20
0.0
 30
0.0
  3
*D6
  1

  0
LINE
  5
1DE6
100
AcDbEntity
  8
0
  6
BYBLOCK
 62
    41
100
AcDbLine
 10
255.874168
 20
-22.626415
 30
0.0
 11
255.874168
 21
-80.154946
 31
0.0
  0
LINE
  5
1DE7
100
AcDbEntity
  8
0
  6
BYBLOCK
 62
    41
100
AcDbLine
 10
477.874168
 20
-22.626415
 30
0.0
 11
477.874168
 21
-80.154946
 31
0.0
  0
LINE
  5
1DE8
100
AcDbEntity
  8
0
  6
BYBLOCK
 62
    41
100
AcDbLine
 10
275.874168
 20
-78.904946
 30
0.0
 11
457.874168
 21
-78.904946
 31
0.0
  0
INSERT
  5
1DE9
100
AcDbEntity
  8
0
  6
BYBLOCK
 62
    41
100
AcDbBlockReference
  2
_OPEN
 10
255.874168
 20
-78.904946
 30
0.0
 41
20.0
 42
20.0
 43
20.0
 50
180.0
  0
INSERT
  5
1DEA
100
AcDbEntity
  8
0
  6
BYBLOCK
 62
    41
100
AcDbBlockReference
  2
_OPEN
 10
477.874168
 20
-78.904946
 30
0.0
 41
20.0
 42
20.0
 43
20.0
  0
MTEXT
  5
1DEB
100
AcDbEntity
  8
0
  6
BYBLOCK
 62
    41
100
AcDbMText
 10
366.874168
 20
-66.902977
 30
0.0
 40
20.0
 41
0.0
 71
     5
 72
     1
  1
\A1;222
  7
ED20
  0
POINT
  5
1DEC
100
AcDbEntity
  8
DEFPOINTS
  6
BYBLOCK
 62
     0
100
AcDbPoint
 10
255.874168
 20
-21.626415
 30
0.0
  0
POINT
  5
1DED
100
AcDbEntity
  8
DEFPOINTS
  6
BYBLOCK
 62
     0
100
AcDbPoint
 10
477.874168
 20
-21.626415
 30
0.0
  0
POINT
  5
1DEE
100
AcDbEntity
  8
DEFPOINTS
  6
BYBLOCK
 62
     0
100
AcDbPoint
 10
477.874168
 20
-78.904946
 30
0.0
  0
ENDBLK
  5
1DEF
100
AcDbEntity
  8
0
100
AcDbBlockEnd
  0
ENDSEC
  0
SECTION
  2
ENTITIES
  0
TEXT
  5
1347
100
AcDbEntity
  8
V0-VYPLNE
 62
     6
100
AcDbText
 10
215.016531
 20
-318.809314
 30
0.0
 40
40.0
  1
HXM-200
  7
ED40
100
AcDbText
  0
TEXT
  5
1348
100
AcDbEntity
  8
V0-VYPLNE
 62
     4
100
AcDbText
 10
134.458991
 20
-374.475144
 30
0.0
 40
30.0
  1
AXIALNI VENTILATOR
  7
ED30
100
AcDbText
  0
LINE
  5
1789
100
AcDbEntity
  8
VO-OBRYS
  6
CONTINUOUS
100
AcDbLine
 10
400.01548
 20
78.011161
 30
0.0
 11
461.902889
 21
16.123752
 31
0.0
  0
ARC
  5
1791
100
AcDbEntity
  8
V0-OBRYS
  6
CONTINUOUS
100
AcDbCircle
 10
366.874168
 20
89.373585
 30
0.0
 40
35.035
100
AcDbArc
 50
148.997281
 51
211.002719
  0
ARC
  5
1792
100
AcDbEntity
  8
V0-OBRYS
100
AcDbCircle
 10
366.874168
 20
89.373585
 30
0.0
 40
112.2
100
AcDbArc
 50
142.88903
 51
217.11097
  0
LINE
  5
1793
100
AcDbEntity
  8
V0-VYPLNE
100
AcDbLine
 10
366.874168
 20
89.373585
 30
0.0
 11
366.874168
 21
203.452717
 31
0.0
  0
LINE
  5
1794
100
AcDbEntity
  8
V0-VYPLNE
100
AcDbLine
 10
474.676973
 20
89.373585
 30
0.0
 11
252.48308
 21
89.373585
 31
0.0
  0
LINE
  5
17A6
100
AcDbEntity
  8
V0-VYPLNE
  6
DASHDOT
100
AcDbLine
 10
366.874168
 20
89.373585
 30
0.0
 11
366.874168
 21
-13.190363
 31
0.0
  0
LINE
  5
17C4
100
AcDbEntity
  8
VO-OBRYS
  6
CONTINUOUS
100
AcDbLine
 10
378.236591
 20
56.232273
 30
0.0
 11
440.124
 21
-5.655137
 31
0.0
  0
LINE
  5
17C9
100
AcDbEntity
  8
V0-VYPLNE
100
AcDbLine
 10
366.874168
 20
89.373585
 30
0.0
 11
474.495672
 21
-18.247919
 31
0.0
  0
LINE
  5
17CA
100
AcDbEntity
  8
VO-OBRYS
  6
CONTINUOUS
100
AcDbLine
 10
355.511744
 20
56.232273
 30
0.0
 11
293.624335
 21
-5.655137
 31
0.0
  0
LINE
  5
17CC
100
AcDbEntity
  8
V0-VYPLNE
100
AcDbLine
 10
366.874168
 20
89.373585
 30
0.0
 11
259.252664
 21
-18.247919
 31
0.0
  0
LINE
  5
17CE
100
AcDbEntity
  8
VO-OBRYS
  6
CONTINUOUS
100
AcDbLine
 10
333.732856
 20
78.011161
 30
0.0
 11
271.845446
 21
16.123752
 31
0.0
  0
CIRCLE
  5
17D1
100
AcDbEntity
  8
V0-OBRYS
100
AcDbCircle
 10
282.734891
 20
5.234308
 30
0.0
 40
6.56132
  0
LINE
  5
17D3
100
AcDbEntity
  8
V0-VYPLNE
100
AcDbLine
 10
264.957343
 20
23.011856
 30
0.0
 11
300.703532
 21
-12.734333
 31
0.0
  0
LINE
  5
17D7
100
AcDbEntity
  8
VO-OBRYS
  6
CONTINUOUS
100
AcDbLine
 10
333.732856
 20
100.736008
 30
0.0
 11
271.845446
 21
162.623417
 31
0.0
  0
LINE
  5
17D9
100
AcDbEntity
  8
V0-VYPLNE
100
AcDbLine
 10
366.874168
 20
89.373585
 30
0.0
 11
255.949722
 21
200.298031
 31
0.0
  0
LINE
  5
17DB
100
AcDbEntity
  8
VO-OBRYS
  6
CONTINUOUS
100
AcDbLine
 10
355.511744
 20
122.514897
 30
0.0
 11
293.624335
 21
184.402306
 31
0.0
  0
LINE
  5
17E4
100
AcDbEntity
  8
VO-OBRYS
  6
CONTINUOUS
100
AcDbLine
 10
378.236591
 20
122.514897
 30
0.0
 11
440.124
 21
184.402306
 31
0.0
  0
LINE
  5
17E6
100
AcDbEntity
  8
V0-VYPLNE
100
AcDbLine
 10
366.874168
 20
89.373585
 30
0.0
 11
474.495672
 21
196.995088
 31
0.0
  0
LINE
  5
17E8
100
AcDbEntity
  8
VO-OBRYS
  6
CONTINUOUS
100
AcDbLine
 10
400.01548
 20
100.736008
 30
0.0
 11
461.902889
 21
162.623417
 31
0.0
  0
ARC
  5
17F1
100
AcDbEntity
  8
VO-OBRYS
100
AcDbCircle
 10
366.874168
 20
89.373585
 30
0.0
 40
56.1
100
AcDbArc
 50
150.932804
 51
209.067196
  0
ARC
  5
17F3
100
AcDbEntity
  8
VO-OBRYS
100
AcDbCircle
 10
366.874168
 20
89.373585
 30
0.0
 40
59.4
100
AcDbArc
 50
150.026114
 51
209.973886
  0
ARC
  5
17F4
100
AcDbEntity
  8
VO-OBRYS
100
AcDbCircle
 10
366.874168
 20
89.373585
 30
0.0
 40
77.0
100
AcDbArc
 50
56.536959
 51
123.463041
  0
ARC
  5
17F5
100
AcDbEntity
  8
VO-OBRYS
100
AcDbCircle
 10
366.874168
 20
89.373585
 30
0.0
 40
80.3
100
AcDbArc
 50
56.056729
 51
123.943271
  0
ARC
  5
17F6
100
AcDbEntity
  8
VO-OBRYS
100
AcDbCircle
 10
366.874168
 20
89.373585
 30
0.0
 40
97.9
100
AcDbArc
 50
54.050409
 51
125.949591
  0
ARC
  5
17F7
100
AcDbEntity
  8
VO-OBRYS
100
AcDbCircle
 10
366.874168
 20
89.373585
 30
0.0
 40
101.2
100
AcDbArc
 50
53.752929
 51
126.247071
  0
ARC
  5
17F9
100
AcDbEntity
  8
V0-VYPLNE
100
AcDbCircle
 10
385.874168
 20
70.373585
 30
0.0
 40
183.847763
100
AcDbArc
 50
130.786327
 51
139.92986
  0
LINE
  5
1807
100
AcDbEntity
  8
V0-OBRYS
100
AcDbLine
 10
-120.664102
 20
222.476272
 30
0.0
 11
-120.664102
 21
-67.126415
 31
0.0
  0
LINE
  5
1808
100
AcDbEntity
  8
V0-OBRYS
100
AcDbLine
 10
-128.664102
 20
89.373585
 30
0.0
 11
-128.664102
 21
222.476272
 31
0.0
  0
LINE
  5
1809
100
AcDbEntity
  8
V0-OBRYS
100
AcDbLine
 10
-120.664102
 20
222.476272
 30
0.0
 11
-128.664102
 21
222.476272
 31
0.0
  0
LINE
  5
180C
100
AcDbEntity
  8
V0-OBRYS
100
AcDbLine
 10
-101.664102
 20
191.873585
 30
0.0
 11
-101.664102
 21
89.373585
 31
0.0
  0
LINE
  5
1811
100
AcDbEntity
  8
V0-OBRYS
100
AcDbLine
 10
-101.664102
 20
-13.126415
 30
0.0
 11
-101.664102
 21
89.373585
 31
0.0
  0
ARC
  5
1812
100
AcDbEntity
  8
V0-OBRYS
100
AcDbCircle
 10
366.874168
 20
89.373585
 30
0.0
 40
115.5
100
AcDbArc
 50
142.662256
 51
217.337744
  0
LINE
  5
1813
100
AcDbEntity
  8
V0-OBRYS
100
AcDbLine
 10
-206.164102
 20
89.373585
 30
0.0
 11
-206.164102
 21
116.373585
 31
0.0
  0
ARC
  5
1825
100
AcDbEntity
  8
V0-OBRYS
  6
CONTINUOUS
100
AcDbCircle
 10
-203.164102
 20
116.373585
 30
0.0
 40
3.0
100
AcDbArc
 50
90.0
 51
180.0
  0
LINE
  5
1835
100
AcDbEntity
  8
V0-OBRYS
  6
CONTINUOUS
100
AcDbLine
 10
243.874168
 20
222.373585
 30
0.0
 11
489.874168
 21
222.373585
 31
0.0
  0
LINE
  5
1836
100
AcDbEntity
  8
V0-OBRYS
  6
CONTINUOUS
100
AcDbLine
 10
499.874168
 20
212.373585
 30
0.0
 11
499.874168
 21
-33.626415
 31
0.0
  0
LINE
  5
1837
100
AcDbEntity
  8
V0-OBRYS
  6
CONTINUOUS
100
AcDbLine
 10
489.874168
 20
-43.626415
 30
0.0
 11
243.874168
 21
-43.626415
 31
0.0
  0
LINE
  5
1838
100
AcDbEntity
  8
V0-OBRYS
  6
CONTINUOUS
100
AcDbLine
 10
233.874168
 20
-33.626415
 30
0.0
 11
233.874168
 21
212.373585
 31
0.0
  0
ARC
  5
1839
100
AcDbEntity
  8
V0-OBRYS
  6
CONTINUOUS
100
AcDbCircle
 10
489.874168
 20
212.373585
 30
0.0
 40
10.0
100
AcDbArc
 50
0.0
 51
90.0
  0
ARC
  5
183A
100
AcDbEntity
  8
V0-OBRYS
  6
CONTINUOUS
100
AcDbCircle
 10
489.874168
 20
-33.626415
 30
0.0
 40
10.0
100
AcDbArc
 50
270.0
 51
0.0
  0
ARC
  5
183B
100
AcDbEntity
  8
V0-OBRYS
  6
CONTINUOUS
100
AcDbCircle
 10
243.874168
 20
-33.626415
 30
0.0
 40
10.0
100
AcDbArc
 50
180.0
 51
270.0
  0
ARC
  5
183C
100
AcDbEntity
  8
V0-OBRYS
  6
CONTINUOUS
100
AcDbCircle
 10
243.874168
 20
212.373585
 30
0.0
 40
10.0
100
AcDbArc
 50
90.0
 51
180.0
  0
DIMENSION
  5
1849
100
AcDbEntity
  8
V0-VYPLNE
  6
CONTINUOUS
 62
    41
100
AcDbDimension
  2
*D4
 10
-120.664102
 20
-100.051715
 30
0.0
 11
-49.948167
 21
-100.051715
 31
0.0
 70
   160
  3
ED20
100
AcDbAlignedDimension
 13
-101.664102
 23
-13.126415
 33
0.0
 14
-120.664102
 24
-67.126415
 34
0.0
100
AcDbRotatedDimension
  0
DIMENSION
  5
1856
100
AcDbEntity
  8
V0-VYPLNE
  6
CONTINUOUS
 62
    41
100
AcDbDimension
  2
*D5
 10
-120.664102
 20
-100.051715
 30
0.0
 11
-160.664102
 21
-100.051715
 31
0.0
 70
   160
  3
ED20
100
AcDbAlignedDimension
 13
-206.164102
 23
89.373585
 33
0.0
 14
-120.664102
 24
-67.126415
 34
0.0
100
AcDbRotatedDimension
  0
DIMENSION
  5
1879
100
AcDbEntity
  8
V0-VYPLNE
  6
CONTINUOUS
 62
    41
100
AcDbDimension
  2
*D1
 10
2.097875
 20
-25.626415
 30
0.0
 11
2.097875
 21
89.373585
 31
0.0
 70
   160
  1
%%c<>
  3
ED20
100
AcDbAlignedDimension
 13
-120.664102
 23
204.373585
 33
0.0
 14
-120.664102
 24
-25.626415
 34
0.0
 50
270.0
100
AcDbRotatedDimension
  0
DIMENSION
  5
1886
100
AcDbEntity
  8
V0-VYPLNE
  6
CONTINUOUS
 62
    41
100
AcDbDimension
  2
*D2
 10
-36.236839
 20
-13.126415
 30
0.0
 11
-36.236839
 21
89.373585
 31
0.0
 70
   160
  1
%%c<>
  3
ED20
100
AcDbAlignedDimension
 13
-101.664102
 23
191.873585
 33
0.0
 14
-101.664102
 24
-13.126415
 34
0.0
 50
270.0
100
AcDbRotatedDimension
  0
DIMENSION
  5
1893
100
AcDbEntity
  8
V0-VYPLNE
  6
CONTINUOUS
 62
    41
100
AcDbDimension
  2
*D3
 10
233.874168
 20
-111.198514
 30
0.0
 11
366.715648
 21
-111.198514
 31
0.0
 70
   160
  3
ED20
100
AcDbAlignedDimension
 13
499.874168
 23
-33.626415
 33
0.0
 14
233.874168
 24
-33.626415
 34
0.0
100
AcDbRotatedDimension
  0
POINT
  5
18A1
100
AcDbEntity
  8
V0-VYPLNE
  6
CONTINUOUS
 62
    41
100
AcDbPoint
 10
-101.664102
 20
89.373585
 30
0.0
  0
LINE
  5
18D7
100
AcDbEntity
  8
V0-VYPLNE
  6
CONTINUOUS
 62
    41
100
AcDbLine
 10
-232.631789
 20
89.373585
 30
0.0
 11
-272.446259
 21
89.373585
 31
0.0
  0
LINE
  5
18D8
100
AcDbEntity
  8
V0-VYPLNE
  6
CONTINUOUS
 62
    41
100
AcDbLine
 10
-232.631789
 20
89.373585
 30
0.0
 11
-255.668362
 21
99.169697
 31
0.0
  0
LINE
  5
18D9
100
AcDbEntity
  8
V0-VYPLNE
  6
CONTINUOUS
 62
    41
100
AcDbLine
 10
-232.631789
 20
89.373585
 30
0.0
 11
-255.668362
 21
79.577473
 31
0.0
  0
LINE
  5
18DA
100
AcDbEntity
  8
V0-VYPLNE
  6
CONTINUOUS
 62
    41
100
AcDbLine
 10
-232.631789
 20
89.373585
 30
0.0
 11
-232.631789
 21
89.373585
 31
0.0
  0
TEXT
  5
18DD
100
AcDbEntity
  8
V0-VYPLNE
 62
     6
100
AcDbText
 10
-181.359443
 20
274.056644
 30
0.0
 40
30.0
  1
HXM-200
  7
ED30
100
AcDbText
  0
TEXT
  5
18DE
100
AcDbEntity
  8
V0-VYPLNE
 62
     6
100
AcDbText
 10
308.0336
 20
272.080224
 30
0.0
 40
30.0
  1
HXM-200
  7
ED30
100
AcDbText
  0
LINE
  5
1ADA
100
AcDbEntity
  8
V0-OBRYS
  6
CONTINUOUS
100
AcDbLine
 10
-183.164102
 20
119.373585
 30
0.0
 11
-183.164102
 21
89.373585
 31
0.0
  0
LINE
  5
1AE3
100
AcDbEntity
  8
V0-OBRYS
  6
CONTINUOUS
100
AcDbLine
 10
-183.164102
 20
119.373585
 30
0.0
 11
-203.164102
 21
119.373585
 31
0.0
  0
LINE
  5
1AE9
100
AcDbEntity
  8
V0-OBRYS
  6
CONTINUOUS
100
AcDbLine
 10
-128.664102
 20
124.373585
 30
0.0
 11
-151.164102
 21
124.373585
 31
0.0
  0
ARC
  5
1AED
100
AcDbEntity
  8
VO-OBRYS
  6
CONTINUOUS
100
AcDbCircle
 10
-100.114703
 20
214.918671
 30
0.0
 40
23.097114
100
AcDbArc
 50
207.164986
 51
266.153599
  0
ARC
  5
1AEE
100
AcDbEntity
  8
VO-OBRYS
  6
CONTINUOUS
100
AcDbCircle
 10
-100.114703
 20
-36.171502
 30
0.0
 40
23.097114
100
AcDbArc
 50
93.846401
 51
152.835014
  0
LINE
  5
1B1D
100
AcDbEntity
  8
VO-OBRYS
  6
CONTINUOUS
100
AcDbLine
 10
-128.813334
 20
216.724459
 30
0.0
 11
-138.194812
 21
214.513002
 31
0.0
  0
LINE
  5
1B24
100
AcDbEntity
  8
V0-OBRYS
  6
CONTINUOUS
100
AcDbLine
 10
-166.664102
 20
130.156078
 30
0.0
 11
-166.664102
 21
89.373585
 31
0.0
  0
LINE
  5
1B25
100
AcDbEntity
  8
V0-OBRYS
  6
CONTINUOUS
100
AcDbLine
 10
-168.164102
 20
130.156078
 30
0.0
 11
-168.164102
 21
89.373585
 31
0.0
  0
LINE
  5
1B2C
100
AcDbEntity
  8
VO-OBRYS
  6
CONTINUOUS
100
AcDbLine
 10
-157.164102
 20
89.373585
 30
0.0
 11
-157.164102
 21
160.169142
 31
0.0
  0
LINE
  5
1B2F
100
AcDbEntity
  8
VO-OBRYS
  6
CONTINUOUS
100
AcDbLine
 10
-156.164102
 20
89.373585
 30
0.0
 11
-156.164102
 21
160.169142
 31
0.0
  0
LINE
  5
1B30
100
AcDbEntity
  8
VO-OBRYS
  6
CONTINUOUS
100
AcDbLine
 10
-152.164102
 20
89.373585
 30
0.0
 11
-152.164102
 21
175.521959
 31
0.0
  0
LINE
  5
1B33
100
AcDbEntity
  8
VO-OBRYS
  6
CONTINUOUS
100
AcDbLine
 10
-151.164102
 20
89.373585
 30
0.0
 11
-151.164102
 21
175.521959
 31
0.0
  0
LINE
  5
1B34
100
AcDbEntity
  8
VO-OBRYS
  6
CONTINUOUS
100
AcDbLine
 10
-147.164102
 20
89.373585
 30
0.0
 11
-147.164102
 21
193.135504
 31
0.0
  0
LINE
  5
1B37
100
AcDbEntity
  8
VO-OBRYS
  6
CONTINUOUS
100
AcDbLine
 10
-146.164102
 20
89.373585
 30
0.0
 11
-146.164102
 21
193.135504
 31
0.0
  0
LINE
  5
1B38
100
AcDbEntity
  8
VO-OBRYS
  6
CONTINUOUS
100
AcDbLine
 10
-142.164102
 20
89.373585
 30
0.0
 11
-142.164102
 21
208.460062
 31
0.0
  0
LINE
  5
1B3B
100
AcDbEntity
  8
VO-OBRYS
  6
CONTINUOUS
100
AcDbLine
 10
-141.164102
 20
89.373585
 30
0.0
 11
-141.164102
 21
208.460062
 31
0.0
  0
ARC
  5
1B3C
100
AcDbEntity
  8
VO-OBRYS
  6
CONTINUOUS
100
AcDbCircle
 10
-141.664102
 20
208.460062
 30
0.0
 40
0.5
100
AcDbArc
 50
0.0
 51
180.0
  0
ARC
  5
1B3D
100
AcDbEntity
  8
VO-OBRYS
  6
CONTINUOUS
100
AcDbCircle
 10
-146.664102
 20
193.135504
 30
0.0
 40
0.5
100
AcDbArc
 50
0.0
 51
180.0
  0
ARC
  5
1B3E
100
AcDbEntity
  8
VO-OBRYS
  6
CONTINUOUS
100
AcDbCircle
 10
-151.664102
 20
175.521959
 30
0.0
 40
0.5
100
AcDbArc
 50
0.0
 51
180.0
  0
ARC
  5
1B3F
100
AcDbEntity
  8
VO-OBRYS
  6
CONTINUOUS
100
AcDbCircle
 10
-156.664102
 20
160.169142
 30
0.0
 40
0.5
100
AcDbArc
 50
0.0
 51
180.0
  0
LINE
  5
1B44
100
AcDbEntity
  8
VO-OBRYS
  6
CONTINUOUS
100
AcDbLine
 10
-162.164102
 20
89.373585
 30
0.0
 11
-162.164102
 21
146.568305
 31
0.0
  0
LINE
  5
1B45
100
AcDbEntity
  8
V0-VYPLNE
100
AcDbLine
 10
-162.164102
 20
89.373585
 30
0.0
 11
-259.688644
 21
89.373585
 31
0.0
  0
LINE
  5
1B47
100
AcDbEntity
  8
VO-OBRYS
  6
CONTINUOUS
100
AcDbLine
 10
-161.164102
 20
89.373585
 30
0.0
 11
-161.164102
 21
146.568305
 31
0.0
  0
ARC
  5
1B48
100
AcDbEntity
  8
VO-OBRYS
  6
CONTINUOUS
100
AcDbCircle
 10
-161.664102
 20
146.568305
 30
0.0
 40
0.5
100
AcDbArc
 50
0.0
 51
180.0
  0
LINE
  5
1B4F
100
AcDbEntity
  8
VO-OBRYS
  6
CONTINUOUS
100
AcDbLine
 10
-138.858427
 20
212.274045
 30
0.0
 11
-141.164102
 21
204.151823
 31
0.0
  0
LINE
  5
1B50
100
AcDbEntity
  8
VO-OBRYS
  6
CONTINUOUS
100
AcDbLine
 10
-139.659918
 20
213.11252
 30
0.0
 11
-141.164102
 21
207.813719
 31
0.0
  0
LINE
  5
1B51
100
AcDbEntity
  8
VO-OBRYS
  6
CONTINUOUS
100
AcDbLine
 10
-128.583897
 20
215.751135
 30
0.0
 11
-137.393321
 21
213.674526
 31
0.0
  0
ARC
  5
1B52
100
AcDbEntity
  8
VO-OBRYS
  6
CONTINUOUS
100
AcDbCircle
 10
-137.735937
 20
212.566355
 30
0.0
 40
2.0
100
AcDbArc
 50
103.263955
 51
164.152217
  0
ARC
  5
1B53
100
AcDbEntity
  8
VO-OBRYS
  6
CONTINUOUS
100
AcDbCircle
 10
-136.934446
 20
211.72788
 30
0.0
 40
2.0
100
AcDbArc
 50
103.263955
 51
164.152217
  0
LINE
  5
1B54
100
AcDbEntity
  8
VO-OBRYS
  6
CONTINUOUS
100
AcDbLine
 10
-142.164102
 20
200.629114
 30
0.0
 11
-146.164102
 21
188.827266
 31
0.0
  0
LINE
  5
1B55
100
AcDbEntity
  8
VO-OBRYS
  6
CONTINUOUS
100
AcDbLine
 10
-142.164102
 20
204.29101
 30
0.0
 11
-146.164102
 21
192.489161
 31
0.0
  0
LINE
  5
1B56
100
AcDbEntity
  8
VO-OBRYS
  6
CONTINUOUS
100
AcDbLine
 10
-147.164102
 20
188.966452
 30
0.0
 11
-151.164102
 21
174.875616
 31
0.0
  0
LINE
  5
1B57
100
AcDbEntity
  8
VO-OBRYS
  6
CONTINUOUS
100
AcDbLine
 10
-147.164102
 20
185.304557
 30
0.0
 11
-151.164102
 21
171.21372
 31
0.0
  0
LINE
  5
1B58
100
AcDbEntity
  8
VO-OBRYS
  6
CONTINUOUS
100
AcDbLine
 10
-152.164102
 20
171.352907
 30
0.0
 11
-156.164102
 21
159.522799
 31
0.0
  0
LINE
  5
1B59
100
AcDbEntity
  8
VO-OBRYS
  6
CONTINUOUS
100
AcDbLine
 10
-152.164102
 20
167.691011
 30
0.0
 11
-156.164102
 21
155.860903
 31
0.0
  0
LINE
  5
1B5A
100
AcDbEntity
  8
VO-OBRYS
  6
CONTINUOUS
100
AcDbLine
 10
-157.164102
 20
156.00009
 30
0.0
 11
-161.164102
 21
145.399253
 31
0.0
  0
LINE
  5
1B5B
100
AcDbEntity
  8
VO-OBRYS
  6
CONTINUOUS
100
AcDbLine
 10
-157.164102
 20
152.338194
 30
0.0
 11
-161.164102
 21
141.737357
 31
0.0
  0
LINE
  5
1B5C
100
AcDbEntity
  8
VO-OBRYS
  6
CONTINUOUS
100
AcDbLine
 10
-162.164102
 20
141.876543
 30
0.0
 11
-167.005351
 21
130.784904
 31
0.0
  0
LINE
  5
1B5D
100
AcDbEntity
  8
VO-OBRYS
  6
CONTINUOUS
100
AcDbLine
 10
-162.164102
 20
138.214648
 30
0.0
 11
-166.664102
 21
128.32513
 31
0.0
  0
ARC
  5
1B5E
100
AcDbEntity
  8
V0-OBRYS
  6
CONTINUOUS
100
AcDbCircle
 10
-167.414102
 20
130.156078
 30
0.0
 40
0.75
100
AcDbArc
 50
0.0
 51
180.0
  0
LINE
  5
1B62
100
AcDbEntity
  8
V0-OBRYS
  6
CONTINUOUS
100
AcDbLine
 10
-152.164102
 20
124.373585
 30
0.0
 11
-156.164102
 21
124.373585
 31
0.0
  0
LINE
  5
1B63
100
AcDbEntity
  8
V0-OBRYS
  6
CONTINUOUS
100
AcDbLine
 10
-157.164102
 20
124.373585
 30
0.0
 11
-161.164102
 21
124.373585
 31
0.0
  0
LINE
  5
1B64
100
AcDbEntity
  8
V0-OBRYS
  6
CONTINUOUS
100
AcDbLine
 10
-162.164102
 20
124.373585
 30
0.0
 11
-166.664102
 21
124.373585
 31
0.0
  0
LINE
  5
1B65
100
AcDbEntity
  8
V0-OBRYS
  6
CONTINUOUS
100
AcDbLine
 10
-168.164102
 20
124.373585
 30
0.0
 11
-178.164102
 21
124.373585
 31
0.0
  0
LINE
  5
1B66
100
AcDbEntity
  8
VO-OBRYS
  6
CONTINUOUS
100
AcDbLine
 10
-198.613769
 20
119.794225
 30
0.0
 11
-198.613769
 21
89.431673
 31
0.0
  0
LINE
  5
1B74
100
AcDbEntity
  8
V0-OBRYS
  6
CONTINUOUS
100
AcDbLine
 10
-157.164102
 20
54.373585
 30
0.0
 11
-161.164102
 21
54.373585
 31
0.0
  0
LINE
  5
1B75
100
AcDbEntity
  8
V0-OBRYS
  6
CONTINUOUS
100
AcDbLine
 10
-183.164102
 20
59.373585
 30
0.0
 11
-203.164102
 21
59.373585
 31
0.0
  0
LINE
  5
1B76
100
AcDbEntity
  8
VO-OBRYS
  6
CONTINUOUS
100
AcDbLine
 10
-198.613769
 20
58.952944
 30
0.0
 11
-198.613769
 21
89.315496
 31
0.0
  0
LINE
  5
1B77
100
AcDbEntity
  8
V0-OBRYS
100
AcDbLine
 10
-206.164102
 20
89.373585
 30
0.0
 11
-206.164102
 21
62.373585
 31
0.0
  0
ARC
  5
1B78
100
AcDbEntity
  8
V0-OBRYS
  6
CONTINUOUS
100
AcDbCircle
 10
-203.164102
 20
62.373585
 30
0.0
 40
3.0
100
AcDbArc
 50
180.0
 51
270.0
  0
LINE
  5
1B79
100
AcDbEntity
  8
V0-OBRYS
  6
CONTINUOUS
100
AcDbLine
 10
-183.164102
 20
59.373585
 30
0.0
 11
-183.164102
 21
89.373585
 31
0.0
  0
LINE
  5
1B7D
100
AcDbEntity
  8
V0-OBRYS
  6
CONTINUOUS
100
AcDbLine
 10
-168.164102
 20
54.373585
 30
0.0
 11
-178.164102
 21
54.373585
 31
0.0
  0
LINE
  5
1B7F
100
AcDbEntity
  8
V0-OBRYS
  6
CONTINUOUS
100
AcDbLine
 10
-162.164102
 20
54.373585
 30
0.0
 11
-166.664102
 21
54.373585
 31
0.0
  0
LINE
  5
1B83
100
AcDbEntity
  8
V0-OBRYS
  6
CONTINUOUS
100
AcDbLine
 10
-152.164102
 20
54.373585
 30
0.0
 11
-156.164102
 21
54.373585
 31
0.0
  0
LINE
  5
1B84
100
AcDbEntity
  8
V0-OBRYS
  6
CONTINUOUS
100
AcDbLine
 10
-147.164102
 20
54.373585
 30
0.0
 11
-151.164102
 21
54.373585
 31
0.0
  0
LINE
  5
1B9A
100
AcDbEntity
  8
VO-OBRYS
  6
CONTINUOUS
100
AcDbLine
 10
-132.910752
 20
124.507619
 30
0.0
 11
-135.624195
 21
187.457104
 31
0.0
  0
LINE
  5
1B9B
100
AcDbEntity
  8
VO-OBRYS
  6
CONTINUOUS
100
AcDbLine
 10
-135.624195
 20
187.457104
 30
0.0
 11
-127.483861
 21
187.999291
 31
0.0
  0
LINE
  5
1BA0
100
AcDbEntity
  8
V0-VYPLNE
  6
DASHED
 62
    52
100
AcDbLine
 10
-127.483861
 20
187.999291
 30
0.0
 11
-118.258151
 21
187.999291
 31
0.0
  0
LINE
  5
1BA1
100
AcDbEntity
  8
V0-VYPLNE
  6
DASHED
 62
    52
100
AcDbLine
 10
-118.258151
 20
187.999291
 30
0.0
 11
-103.605546
 21
186.372725
 31
0.0
  0
LINE
  5
1BA2
100
AcDbEntity
  8
V0-VYPLNE
  6
DASHED
 62
    52
100
AcDbLine
 10
-103.605546
 20
186.372725
 30
0.0
 11
-107.404369
 21
124.400372
 31
0.0
  0
LINE
  5
1BA4
100
AcDbEntity
  8
V0-VYPLNE
  6
DASHED
 62
    52
100
AcDbLine
 10
-103.605546
 20
186.372725
 30
0.0
 11
-124.22773
 21
124.400374
 31
0.0
  0
LINE
  5
1BA6
100
AcDbEntity
  8
V0-VYPLNE
  6
DASHED
 62
    52
100
AcDbLine
 10
-118.258151
 20
-9.252121
 30
0.0
 11
-103.605546
 21
-7.625556
 31
0.0
  0
LINE
  5
1BA8
100
AcDbEntity
  8
V0-VYPLNE
  6
DASHED
 62
    52
100
AcDbLine
 10
-127.483861
 20
-9.252121
 30
0.0
 11
-118.258151
 21
-9.252121
 31
0.0
  0
LINE
  5
1BA9
100
AcDbEntity
  8
VO-OBRYS
  6
CONTINUOUS
100
AcDbLine
 10
-135.624195
 20
-8.709934
 30
0.0
 11
-127.483861
 21
-9.252121
 31
0.0
  0
LINE
  5
1BB3
100
AcDbEntity
  8
V0-VYPLNE
  6
DASHED
 62
    52
100
AcDbLine
 10
-127.413354
 20
-9.317439
 30
0.0
 11
-118.187646
 21
-9.310846
 31
0.0
  0
LINE
  5
1BB4
100
AcDbEntity
  8
VO-OBRYS
  6
CONTINUOUS
100
AcDbLine
 10
-135.554073
 20
-8.78107
 30
0.0
 11
-127.413354
 21
-9.317439
 31
0.0
  0
LINE
  5
1BB5
100
AcDbEntity
  8
V0-VYPLNE
  6
DASHED
 62
    52
100
AcDbLine
 10
-118.187646
 20
-9.310846
 30
0.0
 11
-103.536207
 21
-7.67381
 31
0.0
  0
LINE
  5
1BB7
100
AcDbEntity
  8
V0-VYPLNE
  6
DASHED
 62
    52
100
AcDbLine
 10
-104.14558
 20
119.400372
 30
0.0
 11
-104.14558
 21
89.372576
 31
0.0
  0
ARC
  5
1BB9
100
AcDbEntity
  8
V0-VYPLNE
  6
DASHED
 62
    52
100
AcDbCircle
 10
-109.14558
 20
119.400372
 30
0.0
 40
5.0
100
AcDbArc
 50
0.0
 51
90.0
  0
ARC
  5
1BBC
100
AcDbEntity
  8
V0-OBRYS
  6
CONTINUOUS
100
AcDbCircle
 10
-178.164102
 20
119.373585
 30
0.0
 40
5.0
100
AcDbArc
 50
90.0
 51
180.0
  0
LINE
  5
1BBE
100
AcDbEntity
  8
V0-VYPLNE
  6
DASHED
 62
    52
100
AcDbLine
 10
-109.14558
 20
124.400372
 30
0.0
 11
-128.664102
 21
124.400372
 31
0.0
  0
LINE
  5
1BBF
100
AcDbEntity
  8
V0-VYPLNE
  6
DASHED
 62
    52
100
AcDbLine
 10
-103.605546
 20
-7.625556
 30
0.0
 11
-107.404369
 21
54.346797
 31
0.0
  0
LINE
  5
1BC0
100
AcDbEntity
  8
V0-VYPLNE
  6
DASHED
 62
    52
100
AcDbLine
 10
-103.605546
 20
-7.625556
 30
0.0
 11
-124.22773
 21
54.346795
 31
0.0
  0
LINE
  5
1BC1
100
AcDbEntity
  8
V0-VYPLNE
  6
DASHED
 62
    52
100
AcDbLine
 10
-109.14558
 20
54.346797
 30
0.0
 11
-128.664102
 21
54.346797
 31
0.0
  0
LINE
  5
1BC2
100
AcDbEntity
  8
V0-VYPLNE
  6
DASHED
 62
    52
100
AcDbLine
 10
-104.14558
 20
59.346797
 30
0.0
 11
-104.14558
 21
89.374593
 31
0.0
  0
ARC
  5
1BC3
100
AcDbEntity
  8
V0-VYPLNE
  6
DASHED
 62
    52
100
AcDbCircle
 10
-109.14558
 20
59.346797
 30
0.0
 40
5.0
100
AcDbArc
 50
270.0
 51
0.0
  0
LINE
  5
1BC4
100
AcDbEntity
  8
V0-VYPLNE
  6
DASHED
 62
    52
100
AcDbLine
 10
-127.483861
 20
-9.252121
 30
0.0
 11
-118.258151
 21
-9.252121
 31
0.0
  0
LINE
  5
1BC5
100
AcDbEntity
  8
V0-VYPLNE
  6
DASHED
 62
    52
100
AcDbLine
 10
-118.258151
 20
-9.252121
 30
0.0
 11
-103.605546
 21
-7.625556
 31
0.0
  0
LINE
  5
1BC6
100
AcDbEntity
  8
VO-OBRYS
  6
CONTINUOUS
100
AcDbLine
 10
-132.910752
 20
54.23955
 30
0.0
 11
-135.624195
 21
-8.709934
 31
0.0
  0
LINE
  5
1BC7
100
AcDbEntity
  8
VO-OBRYS
  6
CONTINUOUS
100
AcDbLine
 10
-135.624195
 20
-8.709934
 30
0.0
 11
-127.483861
 21
-9.252121
 31
0.0
  0
ARC
  5
1BC8
100
AcDbEntity
  8
V0-OBRYS
  6
CONTINUOUS
100
AcDbCircle
 10
-178.164102
 20
59.373585
 30
0.0
 40
5.0
100
AcDbArc
 50
180.0
 51
270.0
  0
ARC
  5
1BC9
100
AcDbEntity
  8
VO-OBRYS
100
AcDbCircle
 10
366.874168
 20
89.373585
 30
0.0
 40
97.9
100
AcDbArc
 50
144.050409
 51
215.949591
  0
ARC
  5
1BCA
100
AcDbEntity
  8
VO-OBRYS
100
AcDbCircle
 10
366.874168
 20
89.373585
 30
0.0
 40
101.2
100
AcDbArc
 50
143.752929
 51
216.247071
  0
ARC
  5
1BCB
100
AcDbEntity
  8
VO-OBRYS
100
AcDbCircle
 10
366.874168
 20
89.373585
 30
0.0
 40
77.0
100
AcDbArc
 50
146.536959
 51
213.463041
  0
ARC
  5
1BCC
100
AcDbEntity
  8
VO-OBRYS
100
AcDbCircle
 10
366.874168
 20
89.373585
 30
0.0
 40
80.3
100
AcDbArc
 50
146.056729
 51
213.943271
  0
ARC
  5
1BCD
100
AcDbEntity
  8
VO-OBRYS
100
AcDbCircle
 10
366.874168
 20
89.373585
 30
0.0
 40
56.1
100
AcDbArc
 50
330.932804
 51
119.067196
  0
ARC
  5
1BCE
100
AcDbEntity
  8
VO-OBRYS
100
AcDbCircle
 10
366.874168
 20
89.373585
 30
0.0
 40
59.4
100
AcDbArc
 50
330.026114
 51
119.973886
  0
ARC
  5
1BCF
100
AcDbEntity
  8
VO-OBRYS
100
AcDbCircle
 10
366.874168
 20
89.373585
 30
0.0
 40
80.3
100
AcDbArc
 50
326.056729
 51
33.943271
  0
ARC
  5
1BD0
100
AcDbEntity
  8
VO-OBRYS
100
AcDbCircle
 10
366.874168
 20
89.373585
 30
0.0
 40
77.0
100
AcDbArc
 50
326.536959
 51
33.463041
  0
ARC
  5
1BD1
100
AcDbEntity
  8
VO-OBRYS
100
AcDbCircle
 10
366.874168
 20
89.373585
 30
0.0
 40
97.9
100
AcDbArc
 50
324.050409
 51
35.949591
  0
ARC
  5
1BD2
100
AcDbEntity
  8
VO-OBRYS
100
AcDbCircle
 10
366.874168
 20
89.373585
 30
0.0
 40
101.2
100
AcDbArc
 50
323.752929
 51
36.247071
  0
ARC
  5
1BD3
100
AcDbEntity
  8
VO-OBRYS
100
AcDbCircle
 10
366.874168
 20
89.373585
 30
0.0
 40
101.2
100
AcDbArc
 50
233.752929
 51
306.247071
  0
ARC
  5
1BD4
100
AcDbEntity
  8
VO-OBRYS
100
AcDbCircle
 10
366.874168
 20
89.373585
 30
0.0
 40
97.9
100
AcDbArc
 50
234.050409
 51
305.949591
  0
ARC
  5
1BD5
100
AcDbEntity
  8
VO-OBRYS
100
AcDbCircle
 10
366.874168
 20
89.373585
 30
0.0
 40
80.3
100
AcDbArc
 50
236.056729
 51
303.943271
  0
ARC
  5
1BD6
100
AcDbEntity
  8
VO-OBRYS
100
AcDbCircle
 10
366.874168
 20
89.373585
 30
0.0
 40
77.0
100
AcDbArc
 50
236.536959
 51
303.463041
  0
ARC
  5
1BD7
100
AcDbEntity
  8
VO-OBRYS
100
AcDbCircle
 10
366.874168
 20
89.373585
 30
0.0
 40
59.4
100
AcDbArc
 50
240.026114
 51
299.973886
  0
ARC
  5
1BD8
100
AcDbEntity
  8
VO-OBRYS
100
AcDbCircle
 10
366.874168
 20
89.373585
 30
0.0
 40
56.1
100
AcDbArc
 50
240.932804
 51
299.067196
  0
ARC
  5
1BD9
100
AcDbEntity
  8
V0-OBRYS
100
AcDbCircle
 10
366.874168
 20
89.373585
 30
0.0
 40
112.2
100
AcDbArc
 50
52.88903
 51
127.11097
  0
ARC
  5
1BDA
100
AcDbEntity
  8
V0-OBRYS
100
AcDbCircle
 10
366.874168
 20
89.373585
 30
0.0
 40
115.5
100
AcDbArc
 50
52.662256
 51
127.337744
  0
ARC
  5
1BDB
100
AcDbEntity
  8
V0-OBRYS
100
AcDbCircle
 10
366.874168
 20
89.373585
 30
0.0
 40
112.2
100
AcDbArc
 50
322.88903
 51
37.11097
  0
ARC
  5
1BDC
100
AcDbEntity
  8
V0-OBRYS
100
AcDbCircle
 10
366.874168
 20
89.373585
 30
0.0
 40
115.5
100
AcDbArc
 50
322.662256
 51
37.337744
  0
ARC
  5
1BDD
100
AcDbEntity
  8
V0-OBRYS
100
AcDbCircle
 10
366.874168
 20
89.373585
 30
0.0
 40
112.2
100
AcDbArc
 50
232.88903
 51
307.11097
  0
ARC
  5
1BDE
100
AcDbEntity
  8
V0-OBRYS
100
AcDbCircle
 10
366.874168
 20
89.373585
 30
0.0
 40
115.5
100
AcDbArc
 50
232.662256
 51
307.337744
  0
LINE
  5
1BDF
100
AcDbEntity
  8
V0-OBRYS
  6
CONTINUOUS
 62
    90
100
AcDbLine
 10
339.847168
 20
59.343585
 30
0.0
 11
393.901168
 21
59.343585
 31
0.0
  0
LINE
  5
1BE0
100
AcDbEntity
  8
V0-OBRYS
  6
CONTINUOUS
 62
    90
100
AcDbLine
 10
396.904168
 20
62.346585
 30
0.0
 11
396.904168
 21
116.400585
 31
0.0
  0
LINE
  5
1BE1
100
AcDbEntity
  8
V0-OBRYS
  6
CONTINUOUS
 62
    90
100
AcDbLine
 10
393.901168
 20
119.403585
 30
0.0
 11
339.847168
 21
119.403585
 31
0.0
  0
LINE
  5
1BE2
100
AcDbEntity
  8
V0-OBRYS
  6
CONTINUOUS
 62
    90
100
AcDbLine
 10
336.844168
 20
116.400585
 30
0.0
 11
336.844168
 21
62.346585
 31
0.0
  0
ARC
  5
1BE4
100
AcDbEntity
  8
V0-OBRYS
  6
CONTINUOUS
 62
    90
100
AcDbCircle
 10
339.847168
 20
116.400585
 30
0.0
 40
3.003
100
AcDbArc
 50
90.0
 51
180.0
  0
ARC
  5
1BE5
100
AcDbEntity
  8
V0-OBRYS
  6
CONTINUOUS
 62
    90
100
AcDbCircle
 10
339.847168
 20
62.346585
 30
0.0
 40
3.003
100
AcDbArc
 50
180.0
 51
270.0
  0
ARC
  5
1BE7
100
AcDbEntity
  8
V0-OBRYS
  6
CONTINUOUS
 62
    90
100
AcDbCircle
 10
393.901168
 20
62.346585
 30
0.0
 40
3.003
100
AcDbArc
 50
270.0
 51
0.0
  0
ARC
  5
1BE8
100
AcDbEntity
  8
V0-OBRYS
  6
CONTINUOUS
 62
    90
100
AcDbCircle
 10
393.901168
 20
116.400585
 30
0.0
 40
3.003
100
AcDbArc
 50
0.0
 51
90.0
  0
ARC
  5
1BE9
100
AcDbEntity
  8
V0-OBRYS
  6
CONTINUOUS
100
AcDbCircle
 10
366.874168
 20
89.373585
 30
0.0
 40
35.035
100
AcDbArc
 50
58.997281
 51
121.002719
  0
ARC
  5
1BEA
100
AcDbEntity
  8
V0-OBRYS
  6
CONTINUOUS
100
AcDbCircle
 10
366.874168
 20
89.373585
 30
0.0
 40
35.035
100
AcDbArc
 50
328.997281
 51
31.002719
  0
ARC
  5
1BEB
100
AcDbEntity
  8
V0-OBRYS
  6
CONTINUOUS
100
AcDbCircle
 10
366.874168
 20
89.373585
 30
0.0
 40
35.035
100
AcDbArc
 50
238.997281
 51
301.002719
  0
LINE
  5
1BEC
100
AcDbEntity
  8
V0-OBRYS
  6
CONTINUOUS
 62
    90
100
AcDbLine
 10
341.061583
 20
192.714239
 30
0.0
 11
342.177004
 21
187.51374
 31
0.0
  0
ARC
  5
1BED
100
AcDbEntity
  8
V0-OBRYS
  6
CONTINUOUS
 62
    90
100
AcDbCircle
 10
366.874168
 20
89.373585
 30
0.0
 40
109.756239
100
AcDbArc
 50
77.75092
 51
102.24908
  0
LINE
  5
1BEE
100
AcDbEntity
  8
V0-OBRYS
  6
CONTINUOUS
 62
    90
100
AcDbLine
 10
392.686752
 20
192.714239
 30
0.0
 11
391.571331
 21
187.51374
 31
0.0
  0
ARC
  5
1BEF
100
AcDbEntity
  8
V0-OBRYS
  6
CONTINUOUS
 62
    90
100
AcDbCircle
 10
344.288201
 20
193.406295
 30
0.0
 40
3.3
100
AcDbArc
 50
102.24908
 51
192.105591
  0
ARC
  5
1BF0
100
AcDbEntity
  8
V0-OBRYS
  6
CONTINUOUS
 62
    90
100
AcDbCircle
 10
389.460135
 20
193.406295
 30
0.0
 40
3.3
100
AcDbArc
 50
347.894409
 51
77.75092
  0
LINE
  5
1BF1
100
AcDbEntity
  8
V0-OBRYS
  6
CONTINUOUS
 62
    90
100
AcDbLine
 10
382.102614
 20
143.367144
 30
0.0
 11
377.670619
 21
122.703569
 31
0.0
  0
LINE
  5
1BF2
100
AcDbEntity
  8
V0-OBRYS
  6
CONTINUOUS
 62
    90
100
AcDbLine
 10
386.492105
 20
163.832543
 30
0.0
 11
382.795995
 21
146.599937
 31
0.0
  0
LINE
  5
1BF3
100
AcDbEntity
  8
V0-OBRYS
  6
CONTINUOUS
 62
    90
100
AcDbLine
 10
390.87883
 20
184.28505
 30
0.0
 11
387.184874
 21
167.062485
 31
0.0
  0
LINE
  5
1BF4
100
AcDbEntity
  8
V0-OBRYS
  6
CONTINUOUS
 62
    90
100
AcDbLine
 10
342.869505
 20
184.28505
 30
0.0
 11
346.563461
 21
167.062485
 31
0.0
  0
LINE
  5
1BF5
100
AcDbEntity
  8
V0-OBRYS
  6
CONTINUOUS
 62
    90
100
AcDbLine
 10
347.25623
 20
163.832543
 30
0.0
 11
350.95234
 21
146.599937
 31
0.0
  0
LINE
  5
1BF6
100
AcDbEntity
  8
V0-OBRYS
  6
CONTINUOUS
 62
    90
100
AcDbLine
 10
351.645721
 20
143.367144
 30
0.0
 11
356.077717
 21
122.703569
 31
0.0
  0
LINE
  5
1BF7
100
AcDbEntity
  8
V0-OBRYS
  6
CONTINUOUS
 62
    90
100
AcDbLine
 10
312.880609
 20
74.145138
 30
0.0
 11
333.544183
 21
78.577134
 31
0.0
  0
LINE
  5
1BF8
100
AcDbEntity
  8
V0-OBRYS
  6
CONTINUOUS
 62
    90
100
AcDbLine
 10
312.880609
 20
104.602031
 30
0.0
 11
333.544183
 21
100.170036
 31
0.0
  0
ARC
  5
1BF9
100
AcDbEntity
  8
V0-OBRYS
  6
CONTINUOUS
 62
    90
100
AcDbCircle
 10
262.841457
 20
111.959552
 30
0.0
 40
3.3
100
AcDbArc
 50
77.894409
 51
167.75092
  0
ARC
  5
1BFA
100
AcDbEntity
  8
V0-OBRYS
  6
CONTINUOUS
 62
    90
100
AcDbCircle
 10
366.874168
 20
89.373585
 30
0.0
 40
109.756239
100
AcDbArc
 50
167.75092
 51
192.24908
  0
LINE
  5
1BFB
100
AcDbEntity
  8
V0-OBRYS
  6
CONTINUOUS
 62
    90
100
AcDbLine
 10
271.962703
 20
65.368922
 30
0.0
 11
289.185268
 21
69.062878
 31
0.0
  0
LINE
  5
1BFC
100
AcDbEntity
  8
V0-OBRYS
  6
CONTINUOUS
 62
    90
100
AcDbLine
 10
292.415209
 20
69.755647
 30
0.0
 11
309.647815
 21
73.451757
 31
0.0
  0
LINE
  5
1BFD
100
AcDbEntity
  8
V0-OBRYS
  6
CONTINUOUS
 62
    90
100
AcDbLine
 10
263.533513
 20
63.561
 30
0.0
 11
268.734012
 21
64.676421
 31
0.0
  0
ARC
  5
1BFE
100
AcDbEntity
  8
V0-OBRYS
  6
CONTINUOUS
 62
    90
100
AcDbCircle
 10
262.841457
 20
66.787617
 30
0.0
 40
3.3
100
AcDbArc
 50
192.24908
 51
282.105591
  0
LINE
  5
1BFF
100
AcDbEntity
  8
V0-OBRYS
  6
CONTINUOUS
 62
    90
100
AcDbLine
 10
271.962703
 20
113.378247
 30
0.0
 11
289.185268
 21
109.684291
 31
0.0
  0
LINE
  5
1C00
100
AcDbEntity
  8
V0-OBRYS
  6
CONTINUOUS
 62
    90
100
AcDbLine
 10
292.415209
 20
108.991522
 30
0.0
 11
309.647815
 21
105.295412
 31
0.0
  0
LINE
  5
1C01
100
AcDbEntity
  8
V0-OBRYS
  6
CONTINUOUS
 62
    90
100
AcDbLine
 10
263.533513
 20
115.186169
 30
0.0
 11
268.734012
 21
114.070748
 31
0.0
  0
LINE
  5
1C02
100
AcDbEntity
  8
V0-OBRYS
  6
CONTINUOUS
 62
    90
100
AcDbLine
 10
382.102614
 20
35.380026
 30
0.0
 11
377.670619
 21
56.0436
 31
0.0
  0
LINE
  5
1C03
100
AcDbEntity
  8
V0-OBRYS
  6
CONTINUOUS
 62
    90
100
AcDbLine
 10
351.645721
 20
35.380026
 30
0.0
 11
356.077717
 21
56.0436
 31
0.0
  0
ARC
  5
1C04
100
AcDbEntity
  8
V0-OBRYS
  6
CONTINUOUS
 62
    90
100
AcDbCircle
 10
344.288201
 20
-14.659126
 30
0.0
 40
3.3
100
AcDbArc
 50
167.894409
 51
257.75092
  0
ARC
  5
1C05
100
AcDbEntity
  8
V0-OBRYS
  6
CONTINUOUS
 62
    90
100
AcDbCircle
 10
366.874168
 20
89.373585
 30
0.0
 40
109.756239
100
AcDbArc
 50
257.75092
 51
282.24908
  0
LINE
  5
1C06
100
AcDbEntity
  8
V0-OBRYS
  6
CONTINUOUS
 62
    90
100
AcDbLine
 10
390.87883
 20
-5.53788
 30
0.0
 11
387.184874
 21
11.684684
 31
0.0
  0
LINE
  5
1C07
100
AcDbEntity
  8
V0-OBRYS
  6
CONTINUOUS
 62
    90
100
AcDbLine
 10
386.492105
 20
14.914626
 30
0.0
 11
382.795995
 21
32.147232
 31
0.0
  0
LINE
  5
1C08
100
AcDbEntity
  8
V0-OBRYS
  6
CONTINUOUS
 62
    90
100
AcDbLine
 10
392.686752
 20
-13.96707
 30
0.0
 11
391.571331
 21
-8.766571
 31
0.0
  0
ARC
  5
1C09
100
AcDbEntity
  8
V0-OBRYS
  6
CONTINUOUS
 62
    90
100
AcDbCircle
 10
389.460135
 20
-14.659126
 30
0.0
 40
3.3
100
AcDbArc
 50
282.24908
 51
12.105591
  0
LINE
  5
1C0A
100
AcDbEntity
  8
V0-OBRYS
  6
CONTINUOUS
 62
    90
100
AcDbLine
 10
342.869505
 20
-5.53788
 30
0.0
 11
346.563461
 21
11.684684
 31
0.0
  0
LINE
  5
1C0B
100
AcDbEntity
  8
V0-OBRYS
  6
CONTINUOUS
 62
    90
100
AcDbLine
 10
347.25623
 20
14.914626
 30
0.0
 11
350.95234
 21
32.147232
 31
0.0
  0
LINE
  5
1C0C
100
AcDbEntity
  8
V0-OBRYS
  6
CONTINUOUS
 62
    90
100
AcDbLine
 10
341.061583
 20
-13.96707
 30
0.0
 11
342.177004
 21
-8.766571
 31
0.0
  0
LINE
  5
1C0D
100
AcDbEntity
  8
V0-OBRYS
  6
CONTINUOUS
 62
    90
100
AcDbLine
 10
420.867727
 20
104.602031
 30
0.0
 11
400.204152
 21
100.170036
 31
0.0
  0
LINE
  5
1C0E
100
AcDbEntity
  8
V0-OBRYS
  6
CONTINUOUS
 62
    90
100
AcDbLine
 10
420.867727
 20
74.145138
 30
0.0
 11
400.204152
 21
78.577134
 31
0.0
  0
ARC
  5
1C0F
100
AcDbEntity
  8
V0-OBRYS
  6
CONTINUOUS
 62
    90
100
AcDbCircle
 10
470.906878
 20
66.787617
 30
0.0
 40
3.3
100
AcDbArc
 50
257.894409
 51
347.75092
  0
ARC
  5
1C10
100
AcDbEntity
  8
V0-OBRYS
  6
CONTINUOUS
 62
    90
100
AcDbCircle
 10
366.874168
 20
89.373585
 30
0.0
 40
109.756239
100
AcDbArc
 50
347.75092
 51
12.24908
  0
LINE
  5
1C11
100
AcDbEntity
  8
V0-OBRYS
  6
CONTINUOUS
 62
    90
100
AcDbLine
 10
461.785633
 20
113.378247
 30
0.0
 11
444.563068
 21
109.684291
 31
0.0
  0
LINE
  5
1C12
100
AcDbEntity
  8
V0-OBRYS
  6
CONTINUOUS
 62
    90
100
AcDbLine
 10
441.333126
 20
108.991522
 30
0.0
 11
424.10052
 21
105.295412
 31
0.0
  0
LINE
  5
1C13
100
AcDbEntity
  8
V0-OBRYS
  6
CONTINUOUS
 62
    90
100
AcDbLine
 10
470.214822
 20
115.186169
 30
0.0
 11
465.014323
 21
114.070748
 31
0.0
  0
ARC
  5
1C14
100
AcDbEntity
  8
V0-OBRYS
  6
CONTINUOUS
 62
    90
100
AcDbCircle
 10
470.906878
 20
111.959552
 30
0.0
 40
3.3
100
AcDbArc
 50
12.24908
 51
102.105591
  0
LINE
  5
1C15
100
AcDbEntity
  8
V0-OBRYS
  6
CONTINUOUS
 62
    90
100
AcDbLine
 10
461.785633
 20
65.368922
 30
0.0
 11
444.563068
 21
69.062878
 31
0.0
  0
LINE
  5
1C16
100
AcDbEntity
  8
V0-OBRYS
  6
CONTINUOUS
 62
    90
100
AcDbLine
 10
441.333126
 20
69.755647
 30
0.0
 11
424.10052
 21
73.451757
 31
0.0
  0
LINE
  5
1C17
100
AcDbEntity
  8
V0-OBRYS
  6
CONTINUOUS
 62
    90
100
AcDbLine
 10
470.214822
 20
63.561
 30
0.0
 11
465.014323
 21
64.676421
 31
0.0
  0
CIRCLE
  5
1C91
100
AcDbEntity
  8
V0-OBRYS
  6
CONTINUOUS
 62
    90
100
AcDbCircle
 10
255.874168
 20
200.373585
 30
0.0
 40
4.5
  0
ARC
  5
1C92
100
AcDbEntity
  8
V0-VYPLNE
100
AcDbCircle
 10
385.874168
 20
108.373585
 30
0.0
 40
183.847763
100
AcDbArc
 50
220.786327
 51
229.92986
  0
CIRCLE
  5
1C93
100
AcDbEntity
  8
V0-OBRYS
  6
CONTINUOUS
 62
    90
100
AcDbCircle
 10
255.874168
 20
-21.626415
 30
0.0
 40
4.5
  0
ARC
  5
1C94
100
AcDbEntity
  8
V0-VYPLNE
100
AcDbCircle
 10
347.874168
 20
108.373585
 30
0.0
 40
183.847763
100
AcDbArc
 50
310.786327
 51
319.92986
  0
CIRCLE
  5
1C95
100
AcDbEntity
  8
V0-OBRYS
  6
CONTINUOUS
 62
    90
100
AcDbCircle
 10
477.874168
 20
-21.626415
 30
0.0
 40
4.5
  0
ARC
  5
1C96
100
AcDbEntity
  8
V0-VYPLNE
100
AcDbCircle
 10
347.874168
 20
70.373585
 30
0.0
 40
183.847763
100
AcDbArc
 50
40.786327
 51
49.92986
  0
CIRCLE
  5
1C97
100
AcDbEntity
  8
V0-OBRYS
  6
CONTINUOUS
 62
    90
100
AcDbCircle
 10
477.874168
 20
200.373585
 30
0.0
 40
4.5
  0
DIMENSION
  5
1CA4
100
AcDbEntity
  8
V0-VYPLNE
  6
CONTINUOUS
 62
    41
100
AcDbDimension
  2
*D6
 10
477.874168
 20
-78.904946
 30
0.0
 11
366.874168
 21
-66.902977
 31
0.0
 70
    32
  3
ED20
100
AcDbAlignedDimension
 13
255.874168
 23
-21.626415
 33
0.0
 14
477.874168
 24
-21.626415
 34
0.0
100
AcDbRotatedDimension
  0
LEADER
  5
1CB0
100
AcDbEntity
  8
V0-VYPLNE
  6
CONTINUOUS
 62
    41
100
AcDbLeader
  3
ED20
 73
     0
 75
     1
 40
20.0
 41
159.43187
 76
     3
 10
255.874168
 20
-22.626415
 30
0.0
 10
214.605623
 20
-76.055512
 30
0.0
 10
194.605623
 20
-76.055512
 30
0.0
 77
    41
340
1CB1
211
1.0
221
-0.0000000000000003
231
0.0
  0
MTEXT
  5
1CB1
102
{ACAD_REACTORS
330
1CB0
102
}
100
AcDbEntity
  8
V0-VYPLNE
  6
CONTINUOUS
 62
    41
100
AcDbMText
 10
192.605623
 20
-64.055512
 30
0.0
 40
20.0
 41
0.0
 71
     6
 72
     1
  1
\A1;4 OTVORY %%c9
  7
ED20
  0
CIRCLE
  5
1CB2
100
AcDbEntity
  8
V0-OBRYS
  6
CONTINUOUS
 62
    90
100
AcDbCircle
 10
344.351668
 20
111.896085
 30
0.0
 40
2.002
  0
CIRCLE
  5
1CB3
100
AcDbEntity
  8
V0-OBRYS
  6
CONTINUOUS
 62
    90
100
AcDbCircle
 10
344.351668
 20
66.851085
 30
0.0
 40
2.002
  0
CIRCLE
  5
1CB4
100
AcDbEntity
  8
V0-OBRYS
  6
CONTINUOUS
 62
    90
100
AcDbCircle
 10
389.396668
 20
66.851085
 30
0.0
 40
2.002
  0
CIRCLE
  5
1CB5
100
AcDbEntity
  8
V0-OBRYS
  6
CONTINUOUS
 62
    90
100
AcDbCircle
 10
389.396668
 20
111.896085
 30
0.0
 40
2.002
  0
POINT
  5
1CB6
100
AcDbEntity
  8
V0-VYPLNE
  6
CONTINUOUS
 62
    41
100
AcDbPoint
 10
366.874168
 20
89.373585
 30
0.0
  0
TEXT
  5
1D2A
100
AcDbEntity
  8
V0-VYPLNE
 62
     6
100
AcDbText
 10
-181.359443
 20
-191.582936
 30
0.0
 40
30.0
  1
HXM-200
  7
ED30
100
AcDbText
  0
LINE
  5
1D9C
100
AcDbEntity
  8
V0-VYPLNE
100
AcDbLine
 10
-78.60679
 20
89.373585
 30
0.0
 11
-141.164102
 21
89.373585
 31
0.0
  0
ARC
  5
1DD0
100
AcDbEntity
  8
VO-OBRYS
  6
CONTINUOUS
100
AcDbCircle
 10
282.734891
 20
5.234308
 30
0.0
 40
15.4
100
AcDbArc
 50
135.0
 51
315.0
  0
LINE
  5
1DD1
100
AcDbEntity
  8
V0-VYPLNE
100
AcDbLine
 10
433.235897
 20
-12.54324
 30
0.0
 11
468.982086
 21
23.202949
 31
0.0
  0
ARC
  5
1DD2
100
AcDbEntity
  8
VO-OBRYS
  6
CONTINUOUS
100
AcDbCircle
 10
451.013445
 20
5.234308
 30
0.0
 40
15.4
100
AcDbArc
 50
225.0
 51
45.0
  0
CIRCLE
  5
1DD3
100
AcDbEntity
  8
V0-OBRYS
100
AcDbCircle
 10
451.013445
 20
5.234308
 30
0.0
 40
6.56132
  0
LINE
  5
1DD4
100
AcDbEntity
  8
V0-VYPLNE
100
AcDbLine
 10
468.790993
 20
155.735314
 30
0.0
 11
433.044804
 21
191.481503
 31
0.0
  0
ARC
  5
1DD5
100
AcDbEntity
  8
VO-OBRYS
  6
CONTINUOUS
100
AcDbCircle
 10
451.013445
 20
173.512862
 30
0.0
 40
15.4
100
AcDbArc
 50
315.0
 51
135.0
  0
CIRCLE
  5
1DD6
100
AcDbEntity
  8
V0-OBRYS
100
AcDbCircle
 10
451.013445
 20
173.512862
 30
0.0
 40
6.56132
  0
LINE
  5
1DD7
100
AcDbEntity
  8
V0-VYPLNE
100
AcDbLine
 10
300.512439
 20
191.29041
 30
0.0
 11
264.76625
 21
155.544221
 31
0.0
  0
ARC
  5
1DD8
100
AcDbEntity
  8
VO-OBRYS
  6
CONTINUOUS
100
AcDbCircle
 10
282.734891
 20
173.512862
 30
0.0
 40
15.4
100
AcDbArc
 50
45.0
 51
225.0
  0
CIRCLE
  5
1DD9
100
AcDbEntity
  8
V0-OBRYS
100
AcDbCircle
 10
282.734891
 20
173.512862
 30
0.0
 40
6.56132
  0
LINE
  5
1E23
100
AcDbEntity
  8
VO-OBRYS
  6
CONTINUOUS
100
AcDbLine
 10
-162.251256
 20
36.926337
 30
0.0
 11
-167.074077
 21
48.026002
 31
0.0
  0
LINE
  5
1E24
100
AcDbEntity
  8
VO-OBRYS
  6
CONTINUOUS
100
AcDbLine
 10
-162.245174
 20
40.588228
 30
0.0
 11
-166.728743
 21
50.485206
 31
0.0
  0
LINE
  5
1E25
100
AcDbEntity
  8
VO-OBRYS
  6
CONTINUOUS
100
AcDbLine
 10
-161.164057
 20
89.427563
 30
0.0
 11
-161.25905
 21
32.232921
 31
0.0
  0
LINE
  5
1E26
100
AcDbEntity
  8
VO-OBRYS
  6
CONTINUOUS
100
AcDbLine
 10
-162.164056
 20
89.429224
 30
0.0
 11
-162.259048
 21
32.234582
 31
0.0
  0
LINE
  5
1E27
100
AcDbEntity
  8
VO-OBRYS
  6
CONTINUOUS
100
AcDbLine
 10
-156.164064
 20
89.419258
 30
0.0
 11
-156.281646
 21
18.623798
 31
0.0
  0
LINE
  5
1E28
100
AcDbEntity
  8
VO-OBRYS
  6
CONTINUOUS
100
AcDbLine
 10
-157.164063
 20
89.420919
 30
0.0
 11
-157.281644
 21
18.625459
 31
0.0
  0
LINE
  5
1E29
100
AcDbEntity
  8
VO-OBRYS
  6
CONTINUOUS
100
AcDbLine
 10
-152.16407
 20
89.412615
 30
0.0
 11
-152.30715
 21
3.264359
 31
0.0
  0
LINE
  5
1E2A
100
AcDbEntity
  8
VO-OBRYS
  6
CONTINUOUS
100
AcDbLine
 10
-151.164071
 20
89.410954
 30
0.0
 11
-151.307152
 21
3.262698
 31
0.0
  0
LINE
  5
1E2B
100
AcDbEntity
  8
VO-OBRYS
  6
CONTINUOUS
100
AcDbLine
 10
-147.164077
 20
89.404311
 30
0.0
 11
-147.336411
 21
-14.357466
 31
0.0
  0
LINE
  5
1E2C
100
AcDbEntity
  8
VO-OBRYS
  6
CONTINUOUS
100
AcDbLine
 10
-146.164078
 20
89.40265
 30
0.0
 11
-146.336412
 21
-14.359127
 31
0.0
  0
LINE
  5
1E2D
100
AcDbEntity
  8
VO-OBRYS
  6
CONTINUOUS
100
AcDbLine
 10
-142.164083
 20
89.396006
 30
0.0
 11
-142.36187
 21
-29.690307
 31
0.0
  0
LINE
  5
1E2E
100
AcDbEntity
  8
VO-OBRYS
  6
CONTINUOUS
100
AcDbLine
 10
-141.164085
 20
89.394345
 30
0.0
 11
-141.361871
 21
-29.691968
 31
0.0
  0
LINE
  5
1E2F
100
AcDbEntity
  8
V0-OBRYS
  6
CONTINUOUS
100
AcDbLine
 10
-168.231782
 20
48.656752
 30
0.0
 11
-168.164048
 21
89.439189
 31
0.0
  0
LINE
  5
1E30
100
AcDbEntity
  8
V0-OBRYS
  6
CONTINUOUS
100
AcDbLine
 10
-166.731784
 20
48.65426
 30
0.0
 11
-166.66405
 21
89.436697
 31
0.0
  0
ARC
  5
1E31
100
AcDbEntity
  8
V0-OBRYS
  6
CONTINUOUS
100
AcDbCircle
 10
-167.481783
 20
48.655506
 30
0.0
 40
0.75
100
AcDbArc
 50
179.90484
 51
359.90484
  0
LINE
  5
1E32
100
AcDbEntity
  8
VO-OBRYS
  6
CONTINUOUS
100
AcDbLine
 10
-139.062534
 20
-33.509775
 30
0.0
 11
-141.354716
 21
-25.383735
 31
0.0
  0
LINE
  5
1E33
100
AcDbEntity
  8
VO-OBRYS
  6
CONTINUOUS
100
AcDbLine
 10
-152.300226
 20
7.433406
 30
0.0
 11
-156.280572
 21
19.270141
 31
0.0
  0
LINE
  5
1E34
100
AcDbEntity
  8
VO-OBRYS
  6
CONTINUOUS
100
AcDbLine
 10
-157.27472
 20
22.794506
 30
0.0
 11
-161.257108
 21
33.401972
 31
0.0
  0
LINE
  5
1E35
100
AcDbEntity
  8
VO-OBRYS
  6
CONTINUOUS
100
AcDbLine
 10
-157.268638
 20
26.456396
 30
0.0
 11
-161.251026
 21
37.063863
 31
0.0
  0
ARC
  5
1E36
100
AcDbEntity
  8
VO-OBRYS
  6
CONTINUOUS
100
AcDbCircle
 10
-161.759049
 20
32.233752
 30
0.0
 40
0.5
100
AcDbArc
 50
179.90484
 51
359.90484
  0
LINE
  5
1E37
100
AcDbEntity
  8
VO-OBRYS
  6
CONTINUOUS
100
AcDbLine
 10
-152.294144
 20
11.095296
 30
0.0
 11
-156.27449
 21
22.932031
 31
0.0
  0
ARC
  5
1E38
100
AcDbEntity
  8
VO-OBRYS
  6
CONTINUOUS
100
AcDbCircle
 10
-156.781645
 20
18.624629
 30
0.0
 40
0.5
100
AcDbArc
 50
179.90484
 51
359.90484
  0
LINE
  5
1E39
100
AcDbEntity
  8
VO-OBRYS
  6
CONTINUOUS
100
AcDbLine
 10
-147.329487
 20
-10.18842
 30
0.0
 11
-151.306078
 21
3.909041
 31
0.0
  0
LINE
  5
1E3A
100
AcDbEntity
  8
VO-OBRYS
  6
CONTINUOUS
100
AcDbLine
 10
-147.323405
 20
-6.526529
 30
0.0
 11
-151.299996
 21
7.570931
 31
0.0
  0
ARC
  5
1E3B
100
AcDbEntity
  8
VO-OBRYS
  6
CONTINUOUS
100
AcDbCircle
 10
-151.807151
 20
3.263529
 30
0.0
 40
0.5
100
AcDbArc
 50
179.90484
 51
359.90484
  0
ARC
  5
1E3C
100
AcDbEntity
  8
VO-OBRYS
  6
CONTINUOUS
100
AcDbCircle
 10
-146.836412
 20
-14.358297
 30
0.0
 40
0.5
100
AcDbArc
 50
179.90484
 51
359.90484
  0
LINE
  5
1E3D
100
AcDbEntity
  8
VO-OBRYS
  6
CONTINUOUS
100
AcDbLine
 10
-142.348864
 20
-21.85937
 30
0.0
 11
-146.329257
 21
-10.050894
 31
0.0
  0
LINE
  5
1E3E
100
AcDbEntity
  8
VO-OBRYS
  6
CONTINUOUS
100
AcDbLine
 10
-142.354946
 20
-25.52126
 30
0.0
 11
-146.335339
 21
-13.712785
 31
0.0
  0
ARC
  5
1E3F
100
AcDbEntity
  8
VO-OBRYS
  6
CONTINUOUS
100
AcDbCircle
 10
-141.86187
 20
-29.691137
 30
0.0
 40
0.5
100
AcDbArc
 50
179.90484
 51
359.90484
  0
LINE
  5
1E40
100
AcDbEntity
  8
VO-OBRYS
  6
CONTINUOUS
100
AcDbLine
 10
-139.865417
 20
-34.346918
 30
0.0
 11
-141.360798
 21
-29.045625
 31
0.0
  0
ARC
  5
1E41
100
AcDbEntity
  8
VO-OBRYS
  6
CONTINUOUS
100
AcDbCircle
 10
-137.940531
 20
-33.803949
 30
0.0
 40
2.0
100
AcDbArc
 50
195.752622
 51
256.640884
  0
LINE
  5
1E42
100
AcDbEntity
  8
V0-OBRYS
100
AcDbLine
 10
-128.664102
 20
89.373585
 30
0.0
 11
-128.885167
 21
-43.728919
 31
0.0
  0
LINE
  5
1E43
100
AcDbEntity
  8
VO-OBRYS
  6
CONTINUOUS
100
AcDbLine
 10
-129.024846
 20
-37.976866
 30
0.0
 11
-138.402638
 21
-35.749831
 31
0.0
  0
LINE
  5
1E44
100
AcDbEntity
  8
VO-OBRYS
  6
CONTINUOUS
100
AcDbLine
 10
-128.793792
 20
-37.003925
 30
0.0
 11
-137.599756
 21
-34.912688
 31
0.0
  0
ARC
  5
1E45
100
AcDbEntity
  8
VO-OBRYS
  6
CONTINUOUS
100
AcDbCircle
 10
-137.137648
 20
-32.966806
 30
0.0
 40
2.0
100
AcDbArc
 50
195.752622
 51
256.640884
  0
LINE
  5
1E46
100
AcDbEntity
  8
V0-OBRYS
100
AcDbLine
 10
-120.885178
 20
-43.742206
 30
0.0
 11
-120.443196
 21
222.373585
 31
0.0
  0
LINE
  5
1E47
100
AcDbEntity
  8
V0-OBRYS
100
AcDbLine
 10
-120.885178
 20
-43.742206
 30
0.0
 11
-128.885167
 21
-43.728919
 31
0.0
  0
LINE
  5
1E48
100
AcDbEntity
  8
V0-OBRYS
100
AcDbLine
 10
-120.885178
 20
-513.494451
 30
0.0
 11
-120.443025
 21
-247.275972
 31
0.0
  0
LINE
  5
1E49
100
AcDbEntity
  8
V0-OBRYS
100
AcDbLine
 10
-128.664102
 20
-380.37866
 30
0.0
 11
-128.664102
 21
-247.275972
 31
0.0
  0
LINE
  5
1E4A
100
AcDbEntity
  8
VO-OBRYS
  6
CONTINUOUS
100
AcDbLine
 10
-162.164102
 20
-327.875701
 30
0.0
 11
-167.005351
 21
-338.96734
 31
0.0
  0
LINE
  5
1E4B
100
AcDbEntity
  8
VO-OBRYS
  6
CONTINUOUS
100
AcDbLine
 10
-162.164102
 20
-331.537596
 30
0.0
 11
-166.664102
 21
-341.427114
 31
0.0
  0
LINE
  5
1E4C
100
AcDbEntity
  8
VO-OBRYS
  6
CONTINUOUS
100
AcDbLine
 10
-161.164102
 20
-380.37866
 30
0.0
 11
-161.164102
 21
-323.183939
 31
0.0
  0
LINE
  5
1E4D
100
AcDbEntity
  8
VO-OBRYS
  6
CONTINUOUS
100
AcDbLine
 10
-162.164102
 20
-380.37866
 30
0.0
 11
-162.164102
 21
-323.183939
 31
0.0
  0
LINE
  5
1E4E
100
AcDbEntity
  8
VO-OBRYS
  6
CONTINUOUS
100
AcDbLine
 10
-156.164102
 20
-380.37866
 30
0.0
 11
-156.164102
 21
-309.583102
 31
0.0
  0
LINE
  5
1E4F
100
AcDbEntity
  8
VO-OBRYS
  6
CONTINUOUS
100
AcDbLine
 10
-157.164102
 20
-380.37866
 30
0.0
 11
-157.164102
 21
-309.583102
 31
0.0
  0
LINE
  5
1E50
100
AcDbEntity
  8
VO-OBRYS
  6
CONTINUOUS
100
AcDbLine
 10
-152.164102
 20
-380.37866
 30
0.0
 11
-152.164102
 21
-294.230285
 31
0.0
  0
LINE
  5
1E51
100
AcDbEntity
  8
VO-OBRYS
  6
CONTINUOUS
100
AcDbLine
 10
-151.164102
 20
-380.37866
 30
0.0
 11
-151.164102
 21
-294.230285
 31
0.0
  0
LINE
  5
1E52
100
AcDbEntity
  8
VO-OBRYS
  6
CONTINUOUS
100
AcDbLine
 10
-147.164102
 20
-380.37866
 30
0.0
 11
-147.164102
 21
-276.61674
 31
0.0
  0
LINE
  5
1E53
100
AcDbEntity
  8
VO-OBRYS
  6
CONTINUOUS
100
AcDbLine
 10
-146.164102
 20
-380.37866
 30
0.0
 11
-146.164102
 21
-276.61674
 31
0.0
  0
LINE
  5
1E54
100
AcDbEntity
  8
VO-OBRYS
  6
CONTINUOUS
100
AcDbLine
 10
-142.164102
 20
-380.37866
 30
0.0
 11
-142.164102
 21
-261.292182
 31
0.0
  0
LINE
  5
1E55
100
AcDbEntity
  8
VO-OBRYS
  6
CONTINUOUS
100
AcDbLine
 10
-141.164102
 20
-380.37866
 30
0.0
 11
-141.164102
 21
-261.292182
 31
0.0
  0
LINE
  5
1E56
100
AcDbEntity
  8
V0-VYPLNE
  6
DASHED
 62
    52
100
AcDbLine
 10
-103.605546
 20
-283.379519
 30
0.0
 11
-124.22773
 21
-345.35187
 31
0.0
  0
LINE
  5
1E57
100
AcDbEntity
  8
V0-VYPLNE
  6
DASHED
 62
    52
100
AcDbLine
 10
-103.605546
 20
-283.379519
 30
0.0
 11
-107.404369
 21
-345.351872
 31
0.0
  0
LINE
  5
1E58
100
AcDbEntity
  8
VO-OBRYS
  6
CONTINUOUS
100
AcDbLine
 10
-132.910752
 20
-345.244625
 30
0.0
 11
-135.624195
 21
-282.295141
 31
0.0
  0
LINE
  5
1E59
100
AcDbEntity
  8
V0-OBRYS
100
AcDbLine
 10
-101.664102
 20
-277.87866
 30
0.0
 11
-101.664102
 21
-380.37866
 31
0.0
  0
LINE
  5
1E5A
100
AcDbEntity
  8
V0-VYPLNE
100
AcDbLine
 10
-162.164102
 20
-380.37866
 30
0.0
 11
-259.688644
 21
-380.37866
 31
0.0
  0
LINE
  5
1E5B
100
AcDbEntity
  8
V0-VYPLNE
  6
CONTINUOUS
 62
    41
100
AcDbLine
 10
-232.631789
 20
-380.37866
 30
0.0
 11
-255.668362
 21
-370.582548
 31
0.0
  0
LINE
  5
1E5C
100
AcDbEntity
  8
V0-VYPLNE
  6
CONTINUOUS
 62
    41
100
AcDbLine
 10
-232.631789
 20
-380.37866
 30
0.0
 11
-255.668362
 21
-390.174772
 31
0.0
  0
LINE
  5
1E5D
100
AcDbEntity
  8
V0-VYPLNE
  6
CONTINUOUS
 62
    41
100
AcDbLine
 10
-232.631789
 20
-380.37866
 30
0.0
 11
-272.446259
 21
-380.37866
 31
0.0
  0
LINE
  5
1E5E
100
AcDbEntity
  8
V0-VYPLNE
  6
CONTINUOUS
 62
    41
100
AcDbLine
 10
-232.631789
 20
-380.37866
 30
0.0
 11
-232.631789
 21
-380.37866
 31
0.0
  0
LINE
  5
1E5F
100
AcDbEntity
  8
V0-OBRYS
100
AcDbLine
 10
-128.664102
 20
-380.37866
 30
0.0
 11
-128.885167
 21
-513.481164
 31
0.0
  0
LINE
  5
1E60
100
AcDbEntity
  8
VO-OBRYS
  6
CONTINUOUS
100
AcDbLine
 10
-147.329487
 20
-479.940664
 30
0.0
 11
-151.306078
 21
-465.843204
 31
0.0
  0
LINE
  5
1E61
100
AcDbEntity
  8
VO-OBRYS
  6
CONTINUOUS
100
AcDbLine
 10
-141.164085
 20
-380.357899
 30
0.0
 11
-141.361871
 21
-499.444212
 31
0.0
  0
LINE
  5
1E62
100
AcDbEntity
  8
VO-OBRYS
  6
CONTINUOUS
100
AcDbLine
 10
-142.164083
 20
-380.356238
 30
0.0
 11
-142.36187
 21
-499.442551
 31
0.0
  0
LINE
  5
1E63
100
AcDbEntity
  8
VO-OBRYS
  6
CONTINUOUS
100
AcDbLine
 10
-146.164078
 20
-380.349595
 30
0.0
 11
-146.336412
 21
-484.111371
 31
0.0
  0
LINE
  5
1E64
100
AcDbEntity
  8
VO-OBRYS
  6
CONTINUOUS
100
AcDbLine
 10
-147.164077
 20
-380.347934
 30
0.0
 11
-147.336411
 21
-484.10971
 31
0.0
  0
LINE
  5
1E65
100
AcDbEntity
  8
V0-OBRYS
100
AcDbLine
 10
-101.664102
 20
-482.87866
 30
0.0
 11
-101.664102
 21
-380.37866
 31
0.0
  0
LINE
  5
1E66
100
AcDbEntity
  8
V0-OBRYS
100
AcDbLine
 10
-120.885178
 20
-513.494451
 30
0.0
 11
-128.885167
 21
-513.481164
 31
0.0
  0
LINE
  5
1E67
100
AcDbEntity
  8
VO-OBRYS
  6
CONTINUOUS
100
AcDbLine
 10
-139.062534
 20
-503.262019
 30
0.0
 11
-141.354716
 21
-495.135979
 31
0.0
  0
LINE
  5
1E68
100
AcDbEntity
  8
VO-OBRYS
  6
CONTINUOUS
100
AcDbLine
 10
-128.793792
 20
-506.756169
 30
0.0
 11
-137.599756
 21
-504.664932
 31
0.0
  0
LINE
  5
1E69
100
AcDbEntity
  8
VO-OBRYS
  6
CONTINUOUS
100
AcDbLine
 10
-129.024846
 20
-507.72911
 30
0.0
 11
-138.402638
 21
-505.502075
 31
0.0
  0
ARC
  5
1E6A
100
AcDbEntity
  8
VO-OBRYS
  6
CONTINUOUS
100
AcDbCircle
 10
-137.137648
 20
-502.71905
 30
0.0
 40
2.0
100
AcDbArc
 50
195.752622
 51
256.640884
  0
ARC
  5
1E6B
100
AcDbEntity
  8
VO-OBRYS
  6
CONTINUOUS
100
AcDbCircle
 10
-137.940531
 20
-503.556193
 30
0.0
 40
2.0
100
AcDbArc
 50
195.752622
 51
256.640884
  0
LINE
  5
1E6C
100
AcDbEntity
  8
VO-OBRYS
  6
CONTINUOUS
100
AcDbLine
 10
-139.865417
 20
-504.099162
 30
0.0
 11
-141.360798
 21
-498.79787
 31
0.0
  0
ARC
  5
1E6D
100
AcDbEntity
  8
VO-OBRYS
  6
CONTINUOUS
100
AcDbCircle
 10
-141.86187
 20
-499.443381
 30
0.0
 40
0.5
100
AcDbArc
 50
179.90484
 51
359.90484
  0
LINE
  5
1E6E
100
AcDbEntity
  8
VO-OBRYS
  6
CONTINUOUS
100
AcDbLine
 10
-142.354946
 20
-495.273504
 30
0.0
 11
-146.335339
 21
-483.465029
 31
0.0
  0
LINE
  5
1E6F
100
AcDbEntity
  8
VO-OBRYS
  6
CONTINUOUS
100
AcDbLine
 10
-142.348864
 20
-491.611614
 30
0.0
 11
-146.329257
 21
-479.803138
 31
0.0
  0
ARC
  5
1E70
100
AcDbEntity
  8
VO-OBRYS
  6
CONTINUOUS
100
AcDbCircle
 10
-146.836412
 20
-484.110541
 30
0.0
 40
0.5
100
AcDbArc
 50
179.90484
 51
359.90484
  0
ARC
  5
1E71
100
AcDbEntity
  8
VO-OBRYS
  6
CONTINUOUS
100
AcDbCircle
 10
-100.114703
 20
-505.923746
 30
0.0
 40
23.097114
100
AcDbArc
 50
93.846401
 51
152.835014
  0
LINE
  5
1E72
100
AcDbEntity
  8
V0-VYPLNE
100
AcDbLine
 10
-78.60679
 20
-380.37866
 30
0.0
 11
-141.164102
 21
-380.37866
 31
0.0
  0
LINE
  5
1E73
100
AcDbEntity
  8
V0-VYPLNE
  6
DASHED
 62
    52
100
AcDbLine
 10
-127.483861
 20
-479.004366
 30
0.0
 11
-118.258151
 21
-479.004366
 31
0.0
  0
LINE
  5
1E74
100
AcDbEntity
  8
V0-VYPLNE
  6
DASHED
 62
    52
100
AcDbLine
 10
-109.14558
 20
-415.405447
 30
0.0
 11
-128.664102
 21
-415.405447
 31
0.0
  0
LINE
  5
1E75
100
AcDbEntity
  8
V0-VYPLNE
  6
DASHED
 62
    52
100
AcDbLine
 10
-103.605546
 20
-477.3778
 30
0.0
 11
-124.22773
 21
-415.405449
 31
0.0
  0
LINE
  5
1E76
100
AcDbEntity
  8
V0-VYPLNE
  6
DASHED
 62
    52
100
AcDbLine
 10
-109.14558
 20
-345.351872
 30
0.0
 11
-128.664102
 21
-345.351872
 31
0.0
  0
LINE
  5
1E77
100
AcDbEntity
  8
V0-VYPLNE
  6
DASHED
 62
    52
100
AcDbLine
 10
-127.413354
 20
-479.069684
 30
0.0
 11
-118.187646
 21
-479.06309
 31
0.0
  0
LINE
  5
1E78
100
AcDbEntity
  8
V0-VYPLNE
  6
DASHED
 62
    52
100
AcDbLine
 10
-127.483861
 20
-479.004366
 30
0.0
 11
-118.258151
 21
-479.004366
 31
0.0
  0
LINE
  5
1E79
100
AcDbEntity
  8
V0-OBRYS
  6
CONTINUOUS
100
AcDbLine
 10
-166.731784
 20
-421.097984
 30
0.0
 11
-166.66405
 21
-380.315547
 31
0.0
  0
LINE
  5
1E7A
100
AcDbEntity
  8
V0-OBRYS
  6
CONTINUOUS
100
AcDbLine
 10
-168.231782
 20
-421.095493
 30
0.0
 11
-168.164048
 21
-380.313056
 31
0.0
  0
LINE
  5
1E7B
100
AcDbEntity
  8
VO-OBRYS
  6
CONTINUOUS
100
AcDbLine
 10
-151.164071
 20
-380.34129
 30
0.0
 11
-151.307152
 21
-466.489546
 31
0.0
  0
LINE
  5
1E7C
100
AcDbEntity
  8
VO-OBRYS
  6
CONTINUOUS
100
AcDbLine
 10
-152.16407
 20
-380.339629
 30
0.0
 11
-152.30715
 21
-466.487885
 31
0.0
  0
LINE
  5
1E7D
100
AcDbEntity
  8
VO-OBRYS
  6
CONTINUOUS
100
AcDbLine
 10
-157.164063
 20
-380.331325
 30
0.0
 11
-157.281644
 21
-451.126785
 31
0.0
  0
LINE
  5
1E7E
100
AcDbEntity
  8
VO-OBRYS
  6
CONTINUOUS
100
AcDbLine
 10
-156.164064
 20
-380.332986
 30
0.0
 11
-156.281646
 21
-451.128446
 31
0.0
  0
LINE
  5
1E7F
100
AcDbEntity
  8
VO-OBRYS
  6
CONTINUOUS
100
AcDbLine
 10
-162.164056
 20
-380.323021
 30
0.0
 11
-162.259048
 21
-437.517662
 31
0.0
  0
LINE
  5
1E80
100
AcDbEntity
  8
VO-OBRYS
  6
CONTINUOUS
100
AcDbLine
 10
-161.164057
 20
-380.324682
 30
0.0
 11
-161.25905
 21
-437.519323
 31
0.0
  0
LINE
  5
1E81
100
AcDbEntity
  8
V0-OBRYS
  6
CONTINUOUS
100
AcDbLine
 10
-183.164102
 20
-410.37866
 30
0.0
 11
-183.164102
 21
-380.37866
 31
0.0
  0
ARC
  5
1E82
100
AcDbEntity
  8
V0-OBRYS
  6
CONTINUOUS
100
AcDbCircle
 10
-203.164102
 20
-407.37866
 30
0.0
 40
3.0
100
AcDbArc
 50
180.0
 51
270.0
  0
LINE
  5
1E83
100
AcDbEntity
  8
VO-OBRYS
  6
CONTINUOUS
100
AcDbLine
 10
-198.613769
 20
-410.7993
 30
0.0
 11
-198.613769
 21
-380.436748
 31
0.0
  0
LINE
  5
1E84
100
AcDbEntity
  8
V0-OBRYS
  6
CONTINUOUS
100
AcDbLine
 10
-168.164102
 20
-415.37866
 30
0.0
 11
-178.164102
 21
-415.37866
 31
0.0
  0
LINE
  5
1E85
100
AcDbEntity
  8
V0-OBRYS
  6
CONTINUOUS
100
AcDbLine
 10
-183.164102
 20
-410.37866
 30
0.0
 11
-203.164102
 21
-410.37866
 31
0.0
  0
ARC
  5
1E86
100
AcDbEntity
  8
V0-OBRYS
  6
CONTINUOUS
100
AcDbCircle
 10
-178.164102
 20
-410.37866
 30
0.0
 40
5.0
100
AcDbArc
 50
180.0
 51
270.0
  0
LINE
  5
1E87
100
AcDbEntity
  8
VO-OBRYS
  6
CONTINUOUS
100
AcDbLine
 10
-157.27472
 20
-446.957738
 30
0.0
 11
-161.257108
 21
-436.350272
 31
0.0
  0
LINE
  5
1E88
100
AcDbEntity
  8
VO-OBRYS
  6
CONTINUOUS
100
AcDbLine
 10
-132.910752
 20
-415.512694
 30
0.0
 11
-135.624195
 21
-478.462179
 31
0.0
  0
LINE
  5
1E89
100
AcDbEntity
  8
VO-OBRYS
  6
CONTINUOUS
100
AcDbLine
 10
-147.323405
 20
-476.278773
 30
0.0
 11
-151.299996
 21
-462.181313
 31
0.0
  0
LINE
  5
1E8A
100
AcDbEntity
  8
VO-OBRYS
  6
CONTINUOUS
100
AcDbLine
 10
-152.300226
 20
-462.318839
 30
0.0
 11
-156.280572
 21
-450.482104
 31
0.0
  0
ARC
  5
1E8B
100
AcDbEntity
  8
VO-OBRYS
  6
CONTINUOUS
100
AcDbCircle
 10
-151.807151
 20
-466.488715
 30
0.0
 40
0.5
100
AcDbArc
 50
179.90484
 51
359.90484
  0
ARC
  5
1E8C
100
AcDbEntity
  8
VO-OBRYS
  6
CONTINUOUS
100
AcDbCircle
 10
-156.781645
 20
-451.127615
 30
0.0
 40
0.5
100
AcDbArc
 50
179.90484
 51
359.90484
  0
LINE
  5
1E8D
100
AcDbEntity
  8
VO-OBRYS
  6
CONTINUOUS
100
AcDbLine
 10
-152.294144
 20
-458.656948
 30
0.0
 11
-156.27449
 21
-446.820213
 31
0.0
  0
LINE
  5
1E8E
100
AcDbEntity
  8
VO-OBRYS
  6
CONTINUOUS
100
AcDbLine
 10
-135.624195
 20
-478.462179
 30
0.0
 11
-127.483861
 21
-479.004366
 31
0.0
  0
LINE
  5
1E8F
100
AcDbEntity
  8
VO-OBRYS
  6
CONTINUOUS
100
AcDbLine
 10
-135.554073
 20
-478.533314
 30
0.0
 11
-127.413354
 21
-479.069684
 31
0.0
  0
LINE
  5
1E90
100
AcDbEntity
  8
VO-OBRYS
  6
CONTINUOUS
100
AcDbLine
 10
-135.624195
 20
-478.462179
 30
0.0
 11
-127.483861
 21
-479.004366
 31
0.0
  0
LINE
  5
1E91
100
AcDbEntity
  8
V0-OBRYS
  6
CONTINUOUS
100
AcDbLine
 10
-147.164102
 20
-415.37866
 30
0.0
 11
-151.164102
 21
-415.37866
 31
0.0
  0
LINE
  5
1E92
100
AcDbEntity
  8
VO-OBRYS
  6
CONTINUOUS
100
AcDbLine
 10
-162.245174
 20
-429.164017
 30
0.0
 11
-166.728743
 21
-419.267039
 31
0.0
  0
LINE
  5
1E93
100
AcDbEntity
  8
VO-OBRYS
  6
CONTINUOUS
100
AcDbLine
 10
-162.251256
 20
-432.825907
 30
0.0
 11
-167.074077
 21
-421.726243
 31
0.0
  0
LINE
  5
1E94
100
AcDbEntity
  8
VO-OBRYS
  6
CONTINUOUS
100
AcDbLine
 10
-157.268638
 20
-443.295848
 30
0.0
 11
-161.251026
 21
-432.688382
 31
0.0
  0
ARC
  5
1E95
100
AcDbEntity
  8
VO-OBRYS
  6
CONTINUOUS
100
AcDbCircle
 10
-161.759049
 20
-437.518492
 30
0.0
 40
0.5
100
AcDbArc
 50
179.90484
 51
359.90484
  0
LINE
  5
1E96
100
AcDbEntity
  8
V0-OBRYS
  6
CONTINUOUS
100
AcDbLine
 10
-157.164102
 20
-415.37866
 30
0.0
 11
-161.164102
 21
-415.37866
 31
0.0
  0
ARC
  5
1E97
100
AcDbEntity
  8
V0-OBRYS
  6
CONTINUOUS
100
AcDbCircle
 10
-167.481783
 20
-421.096738
 30
0.0
 40
0.75
100
AcDbArc
 50
179.90484
 51
359.90484
  0
LINE
  5
1E98
100
AcDbEntity
  8
V0-OBRYS
  6
CONTINUOUS
100
AcDbLine
 10
-162.164102
 20
-415.37866
 30
0.0
 11
-166.664102
 21
-415.37866
 31
0.0
  0
LINE
  5
1E99
100
AcDbEntity
  8
V0-OBRYS
  6
CONTINUOUS
100
AcDbLine
 10
-152.164102
 20
-415.37866
 30
0.0
 11
-156.164102
 21
-415.37866
 31
0.0
  0
LINE
  5
1E9A
100
AcDbEntity
  8
V0-OBRYS
  6
CONTINUOUS
100
AcDbLine
 10
-168.164102
 20
-345.37866
 30
0.0
 11
-178.164102
 21
-345.37866
 31
0.0
  0
LINE
  5
1E9B
100
AcDbEntity
  8
VO-OBRYS
  6
CONTINUOUS
100
AcDbLine
 10
-198.613769
 20
-349.958019
 30
0.0
 11
-198.613769
 21
-380.320571
 31
0.0
  0
LINE
  5
1E9C
100
AcDbEntity
  8
V0-OBRYS
  6
CONTINUOUS
100
AcDbLine
 10
-183.164102
 20
-350.37866
 30
0.0
 11
-183.164102
 21
-380.37866
 31
0.0
  0
LINE
  5
1E9D
100
AcDbEntity
  8
V0-OBRYS
100
AcDbLine
 10
-206.164102
 20
-380.37866
 30
0.0
 11
-206.164102
 21
-353.37866
 31
0.0
  0
LINE
  5
1E9E
100
AcDbEntity
  8
V0-OBRYS
100
AcDbLine
 10
-206.164102
 20
-380.37866
 30
0.0
 11
-206.164102
 21
-407.37866
 31
0.0
  0
LINE
  5
1E9F
100
AcDbEntity
  8
V0-OBRYS
  6
CONTINUOUS
100
AcDbLine
 10
-183.164102
 20
-350.37866
 30
0.0
 11
-203.164102
 21
-350.37866
 31
0.0
  0
ARC
  5
1EA0
100
AcDbEntity
  8
V0-OBRYS
  6
CONTINUOUS
100
AcDbCircle
 10
-203.164102
 20
-353.37866
 30
0.0
 40
3.0
100
AcDbArc
 50
90.0
 51
180.0
  0
ARC
  5
1EA1
100
AcDbEntity
  8
V0-OBRYS
  6
CONTINUOUS
100
AcDbCircle
 10
-178.164102
 20
-350.37866
 30
0.0
 40
5.0
100
AcDbArc
 50
90.0
 51
180.0
  0
LINE
  5
1EA2
100
AcDbEntity
  8
V0-OBRYS
  6
CONTINUOUS
100
AcDbLine
 10
-168.164102
 20
-339.596166
 30
0.0
 11
-168.164102
 21
-380.37866
 31
0.0
  0
LINE
  5
1EA3
100
AcDbEntity
  8
V0-OBRYS
  6
CONTINUOUS
100
AcDbLine
 10
-166.664102
 20
-339.596166
 30
0.0
 11
-166.664102
 21
-380.37866
 31
0.0
  0
LINE
  5
1EA4
100
AcDbEntity
  8
V0-OBRYS
  6
CONTINUOUS
100
AcDbLine
 10
-128.664102
 20
-345.37866
 30
0.0
 11
-151.164102
 21
-345.37866
 31
0.0
  0
LINE
  5
1EA5
100
AcDbEntity
  8
V0-OBRYS
  6
CONTINUOUS
100
AcDbLine
 10
-157.164102
 20
-345.37866
 30
0.0
 11
-161.164102
 21
-345.37866
 31
0.0
  0
ARC
  5
1EA6
100
AcDbEntity
  8
V0-OBRYS
  6
CONTINUOUS
100
AcDbCircle
 10
-167.414102
 20
-339.596166
 30
0.0
 40
0.75
100
AcDbArc
 50
0.0
 51
180.0
  0
LINE
  5
1EA7
100
AcDbEntity
  8
V0-OBRYS
  6
CONTINUOUS
100
AcDbLine
 10
-162.164102
 20
-345.37866
 30
0.0
 11
-166.664102
 21
-345.37866
 31
0.0
  0
LINE
  5
1EA8
100
AcDbEntity
  8
V0-OBRYS
  6
CONTINUOUS
100
AcDbLine
 10
-152.164102
 20
-345.37866
 30
0.0
 11
-156.164102
 21
-345.37866
 31
0.0
  0
LINE
  5
1EA9
100
AcDbEntity
  8
V0-VYPLNE
  6
DASHED
 62
    52
100
AcDbLine
 10
-104.14558
 20
-410.405447
 30
0.0
 11
-104.14558
 21
-380.377651
 31
0.0
  0
LINE
  5
1EAA
100
AcDbEntity
  8
V0-VYPLNE
  6
DASHED
 62
    52
100
AcDbLine
 10
-103.605546
 20
-477.3778
 30
0.0
 11
-107.404369
 21
-415.405447
 31
0.0
  0
LINE
  5
1EAB
100
AcDbEntity
  8
V0-VYPLNE
  6
DASHED
 62
    52
100
AcDbLine
 10
-118.258151
 20
-479.004366
 30
0.0
 11
-103.605546
 21
-477.3778
 31
0.0
  0
LINE
  5
1EAC
100
AcDbEntity
  8
V0-VYPLNE
  6
DASHED
 62
    52
100
AcDbLine
 10
-118.187646
 20
-479.06309
 30
0.0
 11
-103.536207
 21
-477.426054
 31
0.0
  0
LINE
  5
1EAD
100
AcDbEntity
  8
V0-VYPLNE
  6
DASHED
 62
    52
100
AcDbLine
 10
-118.258151
 20
-479.004366
 30
0.0
 11
-103.605546
 21
-477.3778
 31
0.0
  0
ARC
  5
1EAE
100
AcDbEntity
  8
V0-VYPLNE
  6
DASHED
 62
    52
100
AcDbCircle
 10
-109.14558
 20
-410.405447
 30
0.0
 40
5.0
100
AcDbArc
 50
270.0
 51
0.0
  0
LINE
  5
1EAF
100
AcDbEntity
  8
V0-VYPLNE
  6
DASHED
 62
    52
100
AcDbLine
 10
-104.14558
 20
-350.351872
 30
0.0
 11
-104.14558
 21
-380.379668
 31
0.0
  0
POINT
  5
1EB0
100
AcDbEntity
  8
V0-VYPLNE
  6
CONTINUOUS
 62
    41
100
AcDbPoint
 10
-101.664102
 20
-380.37866
 30
0.0
  0
ARC
  5
1EB1
100
AcDbEntity
  8
V0-VYPLNE
  6
DASHED
 62
    52
100
AcDbCircle
 10
-109.14558
 20
-350.351872
 30
0.0
 40
5.0
100
AcDbArc
 50
0.0
 51
90.0
  0
LINE
  5
1EB2
100
AcDbEntity
  8
V0-OBRYS
100
AcDbLine
 10
-120.443025
 20
-247.275972
 30
0.0
 11
-128.664102
 21
-247.275972
 31
0.0
  0
LINE
  5
1EB3
100
AcDbEntity
  8
V0-VYPLNE
  6
DASHED
 62
    52
100
AcDbLine
 10
-127.483861
 20
-281.752954
 30
0.0
 11
-118.258151
 21
-281.752954
 31
0.0
  0
LINE
  5
1EB4
100
AcDbEntity
  8
VO-OBRYS
  6
CONTINUOUS
100
AcDbLine
 10
-138.858427
 20
-257.478199
 30
0.0
 11
-141.164102
 21
-265.600421
 31
0.0
  0
LINE
  5
1EB5
100
AcDbEntity
  8
VO-OBRYS
  6
CONTINUOUS
100
AcDbLine
 10
-152.164102
 20
-298.399337
 30
0.0
 11
-156.164102
 21
-310.229445
 31
0.0
  0
LINE
  5
1EB6
100
AcDbEntity
  8
VO-OBRYS
  6
CONTINUOUS
100
AcDbLine
 10
-157.164102
 20
-313.752154
 30
0.0
 11
-161.164102
 21
-324.352992
 31
0.0
  0
LINE
  5
1EB7
100
AcDbEntity
  8
VO-OBRYS
  6
CONTINUOUS
100
AcDbLine
 10
-157.164102
 20
-317.41405
 30
0.0
 11
-161.164102
 21
-328.014887
 31
0.0
  0
ARC
  5
1EB8
100
AcDbEntity
  8
VO-OBRYS
  6
CONTINUOUS
100
AcDbCircle
 10
-161.664102
 20
-323.183939
 30
0.0
 40
0.5
100
AcDbArc
 50
0.0
 51
180.0
  0
LINE
  5
1EB9
100
AcDbEntity
  8
VO-OBRYS
  6
CONTINUOUS
100
AcDbLine
 10
-152.164102
 20
-302.061233
 30
0.0
 11
-156.164102
 21
-313.891341
 31
0.0
  0
ARC
  5
1EBA
100
AcDbEntity
  8
VO-OBRYS
  6
CONTINUOUS
100
AcDbCircle
 10
-156.664102
 20
-309.583102
 30
0.0
 40
0.5
100
AcDbArc
 50
0.0
 51
180.0
  0
LINE
  5
1EBB
100
AcDbEntity
  8
VO-OBRYS
  6
CONTINUOUS
100
AcDbLine
 10
-147.164102
 20
-280.785792
 30
0.0
 11
-151.164102
 21
-294.876628
 31
0.0
  0
LINE
  5
1EBC
100
AcDbEntity
  8
VO-OBRYS
  6
CONTINUOUS
100
AcDbLine
 10
-147.164102
 20
-284.447688
 30
0.0
 11
-151.164102
 21
-298.538524
 31
0.0
  0
ARC
  5
1EBD
100
AcDbEntity
  8
VO-OBRYS
  6
CONTINUOUS
100
AcDbCircle
 10
-151.664102
 20
-294.230285
 30
0.0
 40
0.5
100
AcDbArc
 50
0.0
 51
180.0
  0
LINE
  5
1EBE
100
AcDbEntity
  8
VO-OBRYS
  6
CONTINUOUS
100
AcDbLine
 10
-135.624195
 20
-282.295141
 30
0.0
 11
-127.483861
 21
-281.752954
 31
0.0
  0
ARC
  5
1EBF
100
AcDbEntity
  8
VO-OBRYS
  6
CONTINUOUS
100
AcDbCircle
 10
-146.664102
 20
-276.61674
 30
0.0
 40
0.5
100
AcDbArc
 50
0.0
 51
180.0
  0
LINE
  5
1EC0
100
AcDbEntity
  8
VO-OBRYS
  6
CONTINUOUS
100
AcDbLine
 10
-142.164102
 20
-269.12313
 30
0.0
 11
-146.164102
 21
-280.924979
 31
0.0
  0
LINE
  5
1EC1
100
AcDbEntity
  8
VO-OBRYS
  6
CONTINUOUS
100
AcDbLine
 10
-142.164102
 20
-265.461235
 30
0.0
 11
-146.164102
 21
-277.263083
 31
0.0
  0
LINE
  5
1EC2
100
AcDbEntity
  8
VO-OBRYS
  6
CONTINUOUS
100
AcDbLine
 10
-128.813334
 20
-253.027785
 30
0.0
 11
-138.194812
 21
-255.239242
 31
0.0
  0
LINE
  5
1EC3
100
AcDbEntity
  8
VO-OBRYS
  6
CONTINUOUS
100
AcDbLine
 10
-128.583897
 20
-254.001109
 30
0.0
 11
-137.393321
 21
-256.077718
 31
0.0
  0
ARC
  5
1EC4
100
AcDbEntity
  8
VO-OBRYS
  6
CONTINUOUS
100
AcDbCircle
 10
-141.664102
 20
-261.292182
 30
0.0
 40
0.5
100
AcDbArc
 50
0.0
 51
180.0
  0
LINE
  5
1EC5
100
AcDbEntity
  8
VO-OBRYS
  6
CONTINUOUS
100
AcDbLine
 10
-139.659918
 20
-256.639724
 30
0.0
 11
-141.164102
 21
-261.938526
 31
0.0
  0
ARC
  5
1EC6
100
AcDbEntity
  8
VO-OBRYS
  6
CONTINUOUS
100
AcDbCircle
 10
-137.735937
 20
-257.185889
 30
0.0
 40
2.0
100
AcDbArc
 50
103.263955
 51
164.152217
  0
ARC
  5
1EC7
100
AcDbEntity
  8
VO-OBRYS
  6
CONTINUOUS
100
AcDbCircle
 10
-136.934446
 20
-258.024365
 30
0.0
 40
2.0
100
AcDbArc
 50
103.263955
 51
164.152217
  0
LINE
  5
1EC8
100
AcDbEntity
  8
V0-VYPLNE
  6
DASHED
 62
    52
100
AcDbLine
 10
-118.258151
 20
-281.752954
 30
0.0
 11
-103.605546
 21
-283.379519
 31
0.0
  0
ARC
  5
1EC9
100
AcDbEntity
  8
VO-OBRYS
  6
CONTINUOUS
100
AcDbCircle
 10
-100.114703
 20
-254.833573
 30
0.0
 40
23.097114
100
AcDbArc
 50
207.164986
 51
266.153599
  0
VIEWPORT
  5
22
100
AcDbEntity
 67
     1
  8
0
100
AcDbViewport
 10
261.517699
 20
148.5
 30
0.0
 40
523.035398
 41
297.0
 68
    -1
 69
     1
1001
ACAD
1000
MVIEW
1002
{
1070
    16
1010
0.0
1020
0.0
1030
0.0
1010
0.0
1020
0.0
1030
1.0
1040
0.0
1040
297.0
1040
261.517699
1040
148.5
1040
50.0
1040
0.0
1040
0.0
1070
     0
1070
   100
1070
     1
1070
     1
1070
     0
1070
     0
1070
     0
1070
     0
1040
0.0
1040
0.0
1040
0.0
1040
1.0
1040
1.0
1040
10.0
1040
10.0
1070
     0
1002
{
1002
}
1002
}
  0
ENDSEC
  0
SECTION
  2
OBJECTS
  0
DICTIONARY
  5
C
100
AcDbDictionary
  3
ACAD_GROUP
350
D
  3
ACAD_MLINESTYLE
350
E
  3
ACDBVARIABLEDICTIONARY
350
5D
  0
DICTIONARY
  5
D
102
{ACAD_REACTORS
330
C
102
}
100
AcDbDictionary
  0
DICTIONARY
  5
E
102
{ACAD_REACTORS
330
C
102
}
100
AcDbDictionary
  3
STANDARD
350
13
  0
DICTIONARY
  5
5D
102
{ACAD_REACTORS
330
C
102
}
100
AcDbDictionary
  3
DIMADEC
350
5E
  3
SORTENTS
350
3D8
  0
MLINESTYLE
  5
13
102
{ACAD_REACTORS
330
E
102
}
100
AcDbMlineStyle
  2
STANDARD
 70
     0
  3

 62
     0
 51
90.0
 52
90.0
 71
     2
 49
0.5
 62
   256
  6
BYLAYER
 49
-0.5
 62
   256
  6
BYLAYER
  0
DICTIONARYVAR
  5
5E
102
{ACAD_REACTORS
330
5D
102
}
100
DictionaryVariables
280
     0
  1
0
  0
DICTIONARYVAR
  5
3D8
102
{ACAD_REACTORS
330
5D
102
}
100
DictionaryVariables
280
     0
  1
96
  0
ENDSEC
  0
EOF
